  0
SECTION
  2
HEADER
  9
$ACADVER
  1
AC1015
  9
$ACADMAINTVER
 70
     6
  9
$DWGCODEPAGE
  3
ANSI_1252
  9
$INSBASE
 10
0.0
 20
0.0
 30
0.0
  9
$EXTMIN
 10
19.49999999999996
 20
19.4999999999999
 30
0.0
  9
$EXTMAX
 10
574.5
 20
420.5
 30
0.0
  9
$LIMMIN
 10
0.0
 20
0.0
  9
$LIMMAX
 10
12.0
 20
9.0
  9
$ORTHOMODE
 70
     0
  9
$REGENMODE
 70
     1
  9
$FILLMODE
 70
     1
  9
$QTEXTMODE
 70
     0
  9
$MIRRTEXT
 70
     1
  9
$LTSCALE
 40
1.0
  9
$ATTMODE
 70
     1
  9
$TEXTSIZE
 40
0.2
  9
$TRACEWID
 40
0.05
  9
$TEXTSTYLE
  7
Standard
  9
$CLAYER
  8
0
  9
$CELTYPE
  6
ByLayer
  9
$CECOLOR
 62
   256
  9
$CELTSCALE
 40
1.0
  9
$DISPSILH
 70
     0
  9
$DIMSCALE
 40
1.0
  9
$DIMASZ
 40
0.18
  9
$DIMEXO
 40
0.0625
  9
$DIMDLI
 40
0.38
  9
$DIMRND
 40
0.0
  9
$DIMDLE
 40
0.0
  9
$DIMEXE
 40
0.18
  9
$DIMTP
 40
0.0
  9
$DIMTM
 40
0.0
  9
$DIMTXT
 40
0.18
  9
$DIMCEN
 40
0.09
  9
$DIMTSZ
 40
0.0
  9
$DIMTOL
 70
     0
  9
$DIMLIM
 70
     0
  9
$DIMTIH
 70
     1
  9
$DIMTOH
 70
     1
  9
$DIMSE1
 70
     0
  9
$DIMSE2
 70
     0
  9
$DIMTAD
 70
     0
  9
$DIMZIN
 70
     0
  9
$DIMBLK
  1

  9
$DIMASO
 70
     1
  9
$DIMSHO
 70
     1
  9
$DIMPOST
  1

  9
$DIMAPOST
  1

  9
$DIMALT
 70
     0
  9
$DIMALTD
 70
     2
  9
$DIMALTF
 40
25.4
  9
$DIMLFAC
 40
1.0
  9
$DIMTOFL
 70
     0
  9
$DIMTVP
 40
0.0
  9
$DIMTIX
 70
     0
  9
$DIMSOXD
 70
     0
  9
$DIMSAH
 70
     0
  9
$DIMBLK1
  1

  9
$DIMBLK2
  1

  9
$DIMSTYLE
  2
Standard
  9
$DIMCLRD
 70
     0
  9
$DIMCLRE
 70
     0
  9
$DIMCLRT
 70
     0
  9
$DIMTFAC
 40
1.0
  9
$DIMGAP
 40
0.09
  9
$DIMJUST
 70
     0
  9
$DIMSD1
 70
     0
  9
$DIMSD2
 70
     0
  9
$DIMTOLJ
 70
     1
  9
$DIMTZIN
 70
     0
  9
$DIMALTZ
 70
     0
  9
$DIMALTTZ
 70
     0
  9
$DIMUPT
 70
     0
  9
$DIMDEC
 70
     4
  9
$DIMTDEC
 70
     4
  9
$DIMALTU
 70
     2
  9
$DIMALTTD
 70
     2
  9
$DIMTXSTY
  7
Standard
  9
$DIMAUNIT
 70
     0
  9
$DIMADEC
 70
     0
  9
$DIMALTRND
 40
0.0
  9
$DIMAZIN
 70
     0
  9
$DIMDSEP
 70
    46
  9
$DIMATFIT
 70
     3
  9
$DIMFRAC
 70
     0
  9
$DIMLDRBLK
  1

  9
$DIMLUNIT
 70
     2
  9
$DIMLWD
 70
    -2
  9
$DIMLWE
 70
    -2
  9
$DIMTMOVE
 70
     0
  9
$LUNITS
 70
     2
  9
$LUPREC
 70
     4
  9
$SKETCHINC
 40
0.1
  9
$FILLETRAD
 40
0.5
  9
$AUNITS
 70
     0
  9
$AUPREC
 70
     0
  9
$MENU
  1
.
  9
$ELEVATION
 40
0.0
  9
$PELEVATION
 40
0.0
  9
$THICKNESS
 40
0.0
  9
$LIMCHECK
 70
     0
  9
$CHAMFERA
 40
0.5
  9
$CHAMFERB
 40
0.5
  9
$CHAMFERC
 40
1.0
  9
$CHAMFERD
 40
0.0
  9
$SKPOLY
 70
     0
  9
$TDCREATE
 40
2454986.46577934
  9
$TDUCREATE
 40
2454986.382446007
  9
$TDUPDATE
 40
2454986.465779352
  9
$TDUUPDATE
 40
2454986.382446019
  9
$TDINDWG
 40
0.0000000116
  9
$TDUSRTIMER
 40
0.0000000116
  9
$USRTIMER
 70
     1
  9
$ANGBASE
 50
0.0
  9
$ANGDIR
 70
     0
  9
$PDMODE
 70
     0
  9
$PDSIZE
 40
0.0
  9
$PLINEWID
 40
0.0
  9
$SPLFRAME
 70
     0
  9
$SPLINETYPE
 70
     6
  9
$SPLINESEGS
 70
     8
  9
$HANDSEED
  5
39C
  9
$SURFTAB1
 70
     6
  9
$SURFTAB2
 70
     6
  9
$SURFTYPE
 70
     6
  9
$SURFU
 70
     6
  9
$SURFV
 70
     6
  9
$UCSBASE
  2

  9
$UCSNAME
  2

  9
$UCSORG
 10
0.0
 20
0.0
 30
0.0
  9
$UCSXDIR
 10
1.0
 20
0.0
 30
0.0
  9
$UCSYDIR
 10
0.0
 20
1.0
 30
0.0
  9
$UCSORTHOREF
  2

  9
$UCSORTHOVIEW
 70
     0
  9
$UCSORGTOP
 10
0.0
 20
0.0
 30
0.0
  9
$UCSORGBOTTOM
 10
0.0
 20
0.0
 30
0.0
  9
$UCSORGLEFT
 10
0.0
 20
0.0
 30
0.0
  9
$UCSORGRIGHT
 10
0.0
 20
0.0
 30
0.0
  9
$UCSORGFRONT
 10
0.0
 20
0.0
 30
0.0
  9
$UCSORGBACK
 10
0.0
 20
0.0
 30
0.0
  9
$PUCSBASE
  2

  9
$PUCSNAME
  2

  9
$PUCSORG
 10
0.0
 20
0.0
 30
0.0
  9
$PUCSXDIR
 10
1.0
 20
0.0
 30
0.0
  9
$PUCSYDIR
 10
0.0
 20
1.0
 30
0.0
  9
$PUCSORTHOREF
  2

  9
$PUCSORTHOVIEW
 70
     0
  9
$PUCSORGTOP
 10
0.0
 20
0.0
 30
0.0
  9
$PUCSORGBOTTOM
 10
0.0
 20
0.0
 30
0.0
  9
$PUCSORGLEFT
 10
0.0
 20
0.0
 30
0.0
  9
$PUCSORGRIGHT
 10
0.0
 20
0.0
 30
0.0
  9
$PUCSORGFRONT
 10
0.0
 20
0.0
 30
0.0
  9
$PUCSORGBACK
 10
0.0
 20
0.0
 30
0.0
  9
$USERI1
 70
     0
  9
$USERI2
 70
     0
  9
$USERI3
 70
     0
  9
$USERI4
 70
     0
  9
$USERI5
 70
     0
  9
$USERR1
 40
16.0
  9
$USERR2
 40
0.0
  9
$USERR3
 40
0.0
  9
$USERR4
 40
0.0
  9
$USERR5
 40
0.0
  9
$WORLDVIEW
 70
     1
  9
$SHADEDGE
 70
     3
  9
$SHADEDIF
 70
    70
  9
$TILEMODE
 70
     1
  9
$MAXACTVP
 70
    64
  9
$PINSBASE
 10
0.0
 20
0.0
 30
0.0
  9
$PLIMCHECK
 70
     0
  9
$PEXTMIN
 10
1.00000000000000E+20
 20
1.00000000000000E+20
 30
1.00000000000000E+20
  9
$PEXTMAX
 10
-1.00000000000000E+20
 20
-1.00000000000000E+20
 30
-1.00000000000000E+20
  9
$PLIMMIN
 10
0.0
 20
0.0
  9
$PLIMMAX
 10
12.0
 20
9.0
  9
$UNITMODE
 70
     0
  9
$VISRETAIN
 70
     1
  9
$PLINEGEN
 70
     0
  9
$PSLTSCALE
 70
     1
  9
$TREEDEPTH
 70
  3020
  9
$CMLSTYLE
  2
Standard
  9
$CMLJUST
 70
     0
  9
$CMLSCALE
 40
1.0
  9
$PROXYGRAPHICS
 70
     1
  9
$MEASUREMENT
 70
     1
  9
$CELWEIGHT
370
    -1
  9
$ENDCAPS
280
     0
  9
$JOINSTYLE
280
     0
  9
$LWDISPLAY
290
     0
  9
$INSUNITS
 70
     1
  9
$HYPERLINKBASE
  1

  9
$STYLESHEET
  1

  9
$XEDIT
290
     1
  9
$CEPSNTYPE
380
     0
  9
$PSTYLEMODE
290
     1
  9
$FINGERPRINTGUID
  2
{6B2E11E8-395B-4F8E-A15A-48780911001F}
  9
$VERSIONGUID
  2
{FAEB1C32-E019-11D5-929B-00C0DF256EC4}
  9
$EXTNAMES
290
     1
  9
$PSVPSCALE
 40
0.0
  9
$OLESTARTUP
290
     0
  0
ENDSEC
  0
SECTION
  2
CLASSES
  0
CLASS
  1
ACDBDICTIONARYWDFLT
  2
AcDbDictionaryWithDefault
  3
ObjectDBX Classes
 90
        0
280
     0
281
     0
  0
CLASS
  1
VISUALSTYLE
  2
AcDbVisualStyle
  3
ObjectDBX Classes
 90
     4095
280
     0
281
     0
  0
CLASS
  1

  2
exOdDbPolyline
  3

 90
        0
280
     0
281
     1
  0
CLASS
  1

  2
exOdDbSpline
  3

 90
        0
280
     0
281
     1
  0
CLASS
  1
ACDBPLACEHOLDER
  2
AcDbPlaceHolder
  3
ObjectDBX Classes
 90
        0
280
     0
281
     0
  0
CLASS
  1
LAYOUT
  2
AcDbLayout
  3
ObjectDBX Classes
 90
        0
280
     0
281
     0
  0
ENDSEC
  0
SECTION
  2
TABLES
  0
TABLE
  2
VPORT
  5
8
330
0
100
AcDbSymbolTable
 70
     1
  0
VPORT
  5
29
330
8
100
AcDbSymbolTableRecord
100
AcDbViewportTableRecord
  2
*Active
 70
     0
 10
0.0
 20
0.0
 11
1.0
 21
1.0
 12
297.0
 22
219.9999999999999
 13
0.0
 23
0.0
 14
0.5
 24
0.5
 15
0.5
 25
0.5
 16
0.0
 26
0.0
 36
1.0
 17
0.0
 27
0.0
 37
0.0
 40
441.1000000000001
 41
1.60267857142857
 42
50.0
 43
0.0
 44
0.0
 50
0.0
 51
0.0
 71
     0
 72
   100
 73
     1
 74
     3
 75
     0
 76
     0
 77
     0
 78
     0
281
     0
 65
     1
110
0.0
120
0.0
130
0.0
111
1.0
121
0.0
131
0.0
112
0.0
122
1.0
132
0.0
 79
     0
146
0.0
  0
ENDTAB
  0
TABLE
  2
LTYPE
  5
5
330
0
100
AcDbSymbolTable
 70
     9
  0
LTYPE
  5
14
330
5
100
AcDbSymbolTableRecord
100
AcDbLinetypeTableRecord
  2
ByBlock
 70
     0
  3

 72
    65
 73
     0
 40
0.0
  0
LTYPE
  5
15
330
5
100
AcDbSymbolTableRecord
100
AcDbLinetypeTableRecord
  2
ByLayer
 70
     0
  3

 72
    65
 73
     0
 40
0.0
  0
LTYPE
  5
16
330
5
100
AcDbSymbolTableRecord
100
AcDbLinetypeTableRecord
  2
Continuous
 70
     0
  3
Solid line
 72
    65
 73
     0
 40
0.0
  0
LTYPE
  5
3B
330
5
100
AcDbSymbolTableRecord
100
AcDbLinetypeTableRecord
  2
DASHED
 70
     0
  3
Dashed
 72
    65
 73
     2
 40
15.0
 49
7.0
 74
     0
 49
-8.0
 74
     0
  0
LTYPE
  5
3C
330
5
100
AcDbSymbolTableRecord
100
AcDbLinetypeTableRecord
  2
DOTTED
 70
     0
  3
Dotted
 72
    65
 73
     2
 40
1.0
 49
0.0
 74
     0
 49
-1.0
 74
     0
  0
LTYPE
  5
3D
330
5
100
AcDbSymbolTableRecord
100
AcDbLinetypeTableRecord
  2
DOT_CENTER
 70
     0
  3
Dot_Center
 72
    65
 73
     4
 40
14.0
 49
12.0
 74
     0
 49
-1.0
 74
     0
 49
0.0
 74
     0
 49
-1.0
 74
     0
  0
LTYPE
  5
3E
330
5
100
AcDbSymbolTableRecord
100
AcDbLinetypeTableRecord
  2
LONG_DASHED
 70
     0
  3
Long_Dashed
 72
    65
 73
     2
 40
15.0
 49
10.0
 74
     0
 49
-5.0
 74
     0
  0
LTYPE
  5
3F
330
5
100
AcDbSymbolTableRecord
100
AcDbLinetypeTableRecord
  2
DASH_CENTER
 70
     0
  3
Dash_Center
 72
    65
 73
     4
 40
14.0
 49
11.0
 74
     0
 49
-1.0
 74
     0
 49
1.0
 74
     0
 49
-1.0
 74
     0
  0
LTYPE
  5
40
330
5
100
AcDbSymbolTableRecord
100
AcDbLinetypeTableRecord
  2
PHANTOM
 70
     0
  3
Phantom
 72
    65
 73
     6
 40
13.0
 49
10.0
 74
     0
 49
-1.0
 74
     0
 49
0.0
 74
     0
 49
-1.0
 74
     0
 49
0.0
 74
     0
 49
-1.0
 74
     0
  0
LTYPE
  5
41
330
5
100
AcDbSymbolTableRecord
100
AcDbLinetypeTableRecord
  2
CENTER_DASH_DASH
 70
     0
  3
Center_Dash_Dash
 72
    65
 73
     6
 40
14.0
 49
9.0
 74
     0
 49
-1.0
 74
     0
 49
1.0
 74
     0
 49
-1.0
 74
     0
 49
1.0
 74
     0
 49
-1.0
 74
     0
  0
LTYPE
  5
42
330
5
100
AcDbSymbolTableRecord
100
AcDbLinetypeTableRecord
  2
CHAIN
 70
     0
  3
CHAIN
 72
    65
 73
     4
 40
4.0
 49
1.0
 74
     0
 49
-1.0
 74
     0
 49
1.0
 74
     0
 49
-1.0
 74
     0
  0
ENDTAB
  0
TABLE
  2
LAYER
  5
2
330
0
100
AcDbSymbolTable
 70
     9
  0
LAYER
  5
10
330
2
100
AcDbSymbolTableRecord
100
AcDbLayerTableRecord
  2
0
 70
     0
 62
     7
  6
Continuous
370
    -3
390
F
  0
LAYER
  5
43
330
2
100
AcDbSymbolTableRecord
100
AcDbLayerTableRecord
  2
Bemaßungen_TC_020513_DIN_
 70
     0
 62
     7
  6
Continuous
370
    -3
390
F
  0
LAYER
  5
44
330
2
100
AcDbSymbolTableRecord
100
AcDbLayerTableRecord
  2
Mittellinie_TC_020513_DIN_
 70
     0
 62
     7
  6
Continuous
370
    -3
390
F
  0
LAYER
  5
45
330
2
100
AcDbSymbolTableRecord
100
AcDbLayerTableRecord
  2
Mittelpunktmarkierung_TC_020513_DIN_
 70
     0
 62
     7
  6
Continuous
370
    -3
390
F
  0
LAYER
  5
46
330
2
100
AcDbSymbolTableRecord
100
AcDbLayerTableRecord
  2
Schraffur
 70
     0
 62
     7
  6
Continuous
370
    -3
390
F
  0
LAYER
  5
47
330
2
100
AcDbSymbolTableRecord
100
AcDbLayerTableRecord
  2
Sichtbare_Kanten_TC_020513_DIN_
 70
     0
 62
     7
  6
Continuous
370
    -3
390
F
  0
LAYER
  5
48
330
2
100
AcDbSymbolTableRecord
100
AcDbLayerTableRecord
  2
Skizziergeometrie_ISO_
 70
     0
 62
     7
  6
Continuous
370
    -3
390
F
  0
LAYER
  5
49
330
2
100
AcDbSymbolTableRecord
100
AcDbLayerTableRecord
  2
Symbole_ISO_
 70
     0
 62
     7
  6
Continuous
370
    -3
390
F
  0
LAYER
  5
4A
330
2
100
AcDbSymbolTableRecord
100
AcDbLayerTableRecord
  2
Symbole_TC_020513_DIN_
 70
     0
 62
     7
  6
Continuous
370
    -3
390
F
  0
ENDTAB
  0
TABLE
  2
STYLE
  5
3
330
0
100
AcDbSymbolTable
 70
     6
  0
STYLE
  5
11
330
3
100
AcDbSymbolTableRecord
100
AcDbTextStyleTableRecord
  2
Standard
 70
     0
 40
0.0
 41
1.0
 50
0.0
 71
     0
 42
0.2
  3
txt
  4

  0
STYLE
  5
E9
330
3
100
AcDbSymbolTableRecord
100
AcDbTextStyleTableRecord
  2
CONVERTER_11
 70
     0
 40
0.0
 41
0.59999996423721
 50
0.0
 71
     0
 42
0.2
  3
txt.shx
  4

  0
STYLE
  5
EB
330
3
100
AcDbSymbolTableRecord
100
AcDbTextStyleTableRecord
  2
CONVERTER_12
 70
     0
 40
0.0
 41
0.67499998211861
 50
0.0
 71
     0
 42
0.2
  3
txt.shx
  4

  0
STYLE
  5
32C
330
3
100
AcDbSymbolTableRecord
100
AcDbTextStyleTableRecord
  2
CONVERTER_13
 70
     0
 40
0.0
 41
0.74999995529652
 50
0.0
 71
     0
 42
0.2
  3
ARIAL.TTF
  4

  0
STYLE
  5
32E
330
3
100
AcDbSymbolTableRecord
100
AcDbTextStyleTableRecord
  2
CONVERTER_14
 70
     0
 40
0.0
 41
0.56249998509884
 50
0.0
 71
     0
 42
0.2
  3
ARIAL.TTF
  4

  0
STYLE
  5
330
330
3
100
AcDbSymbolTableRecord
100
AcDbTextStyleTableRecord
  2
CONVERTER_15
 70
     0
 40
0.0
 41
0.625
 50
0.0
 71
     0
 42
0.2
  3
ARIAL.TTF
  4

  0
ENDTAB
  0
TABLE
  2
VIEW
  5
6
330
0
100
AcDbSymbolTable
 70
     0
  0
ENDTAB
  0
TABLE
  2
UCS
  5
7
330
0
100
AcDbSymbolTable
 70
     0
  0
ENDTAB
  0
TABLE
  2
APPID
  5
9
330
0
100
AcDbSymbolTable
 70
     1
  0
APPID
  5
12
330
9
100
AcDbSymbolTableRecord
100
AcDbRegAppTableRecord
  2
ACAD
 70
     0
  0
ENDTAB
  0
TABLE
  2
DIMSTYLE
  5
A
330
0
100
AcDbSymbolTable
 70
    11
100
AcDbDimStyleTable
  0
DIMSTYLE
105
27
330
A
100
AcDbSymbolTableRecord
100
AcDbDimStyleTableRecord
  2
Standard
 70
     0
340
11
  0
DIMSTYLE
105
332
330
A
100
AcDbSymbolTableRecord
100
AcDbDimStyleTableRecord
  2
ME10_DIM_10
 70
     0
140
6.99999988079071
147
1.74999997019768
178
     7
340
11
  0
DIMSTYLE
105
33D
102
{ACAD_REACTORS
330
33E
102
}
330
A
100
AcDbSymbolTableRecord
100
AcDbDimStyleTableRecord
  2
ME10_DIM_11
 70
     0
 41
5.0
 42
2.0
 44
4.0
 73
     0
 74
     0
 77
     1
 78
    12
140
7.0
147
0.8
172
     1
173
     1
176
     7
177
     7
178
     7
271
     2
340
330
  0
DIMSTYLE
105
348
102
{ACAD_REACTORS
330
349
102
}
330
A
100
AcDbSymbolTableRecord
100
AcDbDimStyleTableRecord
  2
ME10_DIM_12
 70
     0
 41
5.0
 42
2.0
 44
4.0
 73
     0
 74
     0
 77
     1
 78
    12
140
7.0
147
0.8
172
     1
173
     1
176
     7
177
     7
178
     7
271
     2
340
330
  0
DIMSTYLE
105
355
102
{ACAD_REACTORS
330
356
102
}
330
A
100
AcDbSymbolTableRecord
100
AcDbDimStyleTableRecord
  2
ME10_DIM_13
 70
     0
 41
5.0
 42
2.0
 44
4.0
 73
     0
 74
     0
 77
     1
 78
    12
140
7.0
147
0.8
172
     1
173
     1
176
     7
177
     7
178
     7
271
     2
340
330
  0
DIMSTYLE
105
360
102
{ACAD_REACTORS
330
361
102
}
330
A
100
AcDbSymbolTableRecord
100
AcDbDimStyleTableRecord
  2
ME10_DIM_14
 70
     0
 41
5.0
 42
2.0
 44
4.0
 73
     0
 74
     0
 77
     1
 78
    12
140
7.0
147
0.8
172
     1
173
     1
176
     7
177
     7
178
     7
271
     2
340
330
  0
DIMSTYLE
105
36B
102
{ACAD_REACTORS
330
36C
102
}
330
A
100
AcDbSymbolTableRecord
100
AcDbDimStyleTableRecord
  2
ME10_DIM_15
 70
     0
 41
5.0
 42
2.0
 44
4.0
 73
     0
 74
     0
 77
     1
 78
    12
140
7.0
147
0.8
172
     1
173
     1
176
     7
177
     7
178
     7
271
     2
340
330
  0
DIMSTYLE
105
376
102
{ACAD_REACTORS
330
377
102
}
330
A
100
AcDbSymbolTableRecord
100
AcDbDimStyleTableRecord
  2
ME10_DIM_16
 70
     0
 41
5.0
 42
2.0
 44
4.0
 73
     0
 74
     0
 77
     1
 78
    12
140
7.0
147
0.8
172
     1
173
     1
176
     7
177
     7
178
     7
271
     2
340
330
  0
DIMSTYLE
105
381
102
{ACAD_REACTORS
330
382
102
}
330
A
100
AcDbSymbolTableRecord
100
AcDbDimStyleTableRecord
  2
ME10_DIM_17
 70
     0
 41
5.0
 42
2.0
 44
4.0
 73
     0
 74
     0
 77
     1
 78
    12
140
7.0
147
0.8
172
     1
173
     1
176
     7
177
     7
178
     7
271
     2
340
330
  0
DIMSTYLE
105
38C
102
{ACAD_REACTORS
330
38D
102
}
330
A
100
AcDbSymbolTableRecord
100
AcDbDimStyleTableRecord
  2
ME10_DIM_18
 70
     0
 41
5.0
 42
2.0
 44
4.0
 73
     0
 74
     0
 77
     1
 78
    12
140
7.0
147
0.8
172
     1
173
     1
176
     7
177
     7
178
     7
271
     2
340
330
  0
DIMSTYLE
105
397
102
{ACAD_REACTORS
330
398
102
}
330
A
100
AcDbSymbolTableRecord
100
AcDbDimStyleTableRecord
  2
ME10_DIM_19
 70
     0
 41
5.0
 42
2.0
 44
4.0
 73
     0
 74
     0
 77
     1
 78
    12
140
7.0
147
0.8
172
     1
173
     1
176
     7
177
     7
178
     7
271
     2
340
330
  0
ENDTAB
  0
TABLE
  2
BLOCK_RECORD
  5
1
330
0
100
AcDbSymbolTable
 70
    12
  0
BLOCK_RECORD
  5
1F
330
1
100
AcDbSymbolTableRecord
100
AcDbBlockTableRecord
  2
*Model_Space
340
22
  0
BLOCK_RECORD
  5
1B
330
1
100
AcDbSymbolTableRecord
100
AcDbBlockTableRecord
  2
*Paper_Space
340
1E
  0
BLOCK_RECORD
  5
23
330
1
100
AcDbSymbolTableRecord
100
AcDbBlockTableRecord
  2
*Paper_Space0
340
26
  0
BLOCK_RECORD
  5
4B
330
1
100
AcDbSymbolTableRecord
100
AcDbBlockTableRecord
  2
Schriftfelder_Ilme
340
0
102
{BLKREFS
331
51
102
}
  0
BLOCK_RECORD
  5
4E
330
1
100
AcDbSymbolTableRecord
100
AcDbBlockTableRecord
  2
Ränder_Ilme_Rahmen_A4_quer
340
0
102
{BLKREFS
331
52
102
}
  0
BLOCK_RECORD
  5
334
330
1
100
AcDbSymbolTableRecord
100
AcDbBlockTableRecord
  2
*D3
340
0
  0
BLOCK_RECORD
  5
33F
330
1
100
AcDbSymbolTableRecord
100
AcDbBlockTableRecord
  2
*D4
340
0
  0
BLOCK_RECORD
  5
34A
330
1
100
AcDbSymbolTableRecord
100
AcDbBlockTableRecord
  2
*D5
340
0
  0
BLOCK_RECORD
  5
357
330
1
100
AcDbSymbolTableRecord
100
AcDbBlockTableRecord
  2
*D6
340
0
  0
BLOCK_RECORD
  5
362
330
1
100
AcDbSymbolTableRecord
100
AcDbBlockTableRecord
  2
*D7
340
0
  0
BLOCK_RECORD
  5
36D
330
1
100
AcDbSymbolTableRecord
100
AcDbBlockTableRecord
  2
*D8
340
0
  0
BLOCK_RECORD
  5
378
330
1
100
AcDbSymbolTableRecord
100
AcDbBlockTableRecord
  2
*D9
340
0
  0
BLOCK_RECORD
  5
383
330
1
100
AcDbSymbolTableRecord
100
AcDbBlockTableRecord
  2
*D10
340
0
  0
BLOCK_RECORD
  5
38E
330
1
100
AcDbSymbolTableRecord
100
AcDbBlockTableRecord
  2
*D11
340
0
  0
ENDTAB
  0
ENDSEC
  0
SECTION
  2
BLOCKS
  0
BLOCK
  5
20
330
1F
100
AcDbEntity
  8
0
100
AcDbBlockBegin
  2
*Model_Space
 70
     0
 10
0.0
 20
0.0
 30
0.0
  3
*Model_Space
  1

  0
ENDBLK
  5
21
330
1F
100
AcDbEntity
  8
0
100
AcDbBlockEnd
  0
BLOCK
  5
1C
330
1B
100
AcDbEntity
 67
     1
  8
0
100
AcDbBlockBegin
  2
*Paper_Space
 70
     0
 10
0.0
 20
0.0
 30
0.0
  3
*Paper_Space
  1

  0
ENDBLK
  5
1D
330
1B
100
AcDbEntity
 67
     1
  8
0
100
AcDbBlockEnd
  0
BLOCK
  5
24
330
23
100
AcDbEntity
  8
0
100
AcDbBlockBegin
  2
*Paper_Space0
 70
     0
 10
0.0
 20
0.0
 30
0.0
  3
*Paper_Space0
  1

  0
ENDBLK
  5
25
330
23
100
AcDbEntity
  8
0
100
AcDbBlockEnd
  0
BLOCK
  5
4C
330
4B
100
AcDbEntity
  8
0
100
AcDbBlockBegin
  2
Schriftfelder_Ilme
 70
     0
 10
0.0
 20
0.0
 30
0.0
  3
Schriftfelder_Ilme
  1

  0
LINE
  5
53
102
{ACAD_REACTORS
330
EF
330
EF
102
}
330
4B
100
AcDbEntity
  8
0
  6
Continuous
 62
     7
100
AcDbLine
 10
192.857882489926
 20
15.5586421730067
 30
0.0
 11
191.48842975933
 21
14.7685732899702
 31
0.0
  0
LINE
  5
54
102
{ACAD_REACTORS
330
EF
330
EF
102
}
330
4B
100
AcDbEntity
  8
0
  6
Continuous
 62
     7
100
AcDbLine
 10
190.988522274833
 20
15.0573018186531
 30
0.0
 11
190.988522274833
 21
19.9439783665993
 31
0.0
  0
LINE
  5
55
102
{ACAD_REACTORS
330
EF
330
EF
102
}
330
4B
100
AcDbEntity
  8
0
  6
Continuous
 62
     7
100
AcDbLine
 10
191.48842975933
 20
20.2327068952822
 30
0.0
 11
192.857882489926
 21
19.4426380122457
 31
0.0
  0
LINE
  5
56
102
{ACAD_REACTORS
330
EF
330
EF
102
}
330
4B
100
AcDbEntity
  8
0
  6
Continuous
 62
     7
100
AcDbLine
 10
192.5247341876
 20
18.8651809548799
 30
0.0
 11
191.6551889415
 21
19.3668416737836
 31
0.0
  0
LINE
  5
57
102
{ACAD_REACTORS
330
EF
330
EF
102
}
330
4B
100
AcDbEntity
  8
0
  6
Continuous
 62
     7
100
AcDbLine
 10
191.6551889415
 20
19.3668416737836
 30
0.0
 11
191.6551889415
 21
17.8339734259596
 31
0.0
  0
LINE
  5
58
102
{ACAD_REACTORS
330
EF
330
EF
102
}
330
4B
100
AcDbEntity
  8
0
  6
Continuous
 62
     7
100
AcDbLine
 10
191.6551889415
 20
17.8339734259596
 30
0.0
 11
192.691308338763
 21
17.8339734259596
 31
0.0
  0
LINE
  5
59
102
{ACAD_REACTORS
330
EF
330
EF
102
}
330
4B
100
AcDbEntity
  8
0
  6
Continuous
 62
     7
100
AcDbLine
 10
192.691308338763
 20
17.1673067592928
 30
0.0
 11
191.6551889415
 21
17.1673067592928
 31
0.0
  0
LINE
  5
5A
102
{ACAD_REACTORS
330
EF
330
EF
102
}
330
4B
100
AcDbEntity
  8
0
  6
Continuous
 62
     7
100
AcDbLine
 10
191.6551889415
 20
17.1673067592928
 30
0.0
 11
191.6551889415
 21
15.6344385114688
 31
0.0
  0
LINE
  5
5B
102
{ACAD_REACTORS
330
EF
330
EF
102
}
330
4B
100
AcDbEntity
  8
0
  6
Continuous
 62
     7
100
AcDbLine
 10
191.6551889415
 20
15.6344385114688
 30
0.0
 11
192.5247341876
 21
16.1360992303725
 31
0.0
  0
LINE
  5
5C
102
{ACAD_REACTORS
330
F0
330
F0
102
}
330
4B
100
AcDbEntity
  8
0
  6
Continuous
 62
     7
100
AcDbLine
 10
186.988528696562
 20
20.7526980593071
 30
0.0
 11
186.988528696563
 21
15.8473707016896
 31
0.0
  0
LINE
  5
5D
102
{ACAD_REACTORS
330
F0
330
F0
102
}
330
4B
100
AcDbEntity
  8
0
  6
Continuous
 62
     7
100
AcDbLine
 10
187.655195363229
 20
15.8473707016896
 30
0.0
 11
187.655195363229
 21
19.2535360148728
 31
0.0
  0
LINE
  5
5E
102
{ACAD_REACTORS
330
F0
330
F0
102
}
330
4B
100
AcDbEntity
  8
0
  6
Continuous
 62
     7
100
AcDbLine
 10
187.655195363229
 20
19.2535360148728
 30
0.0
 11
188.510852383006
 21
17.7714945827671
 31
0.0
  0
LINE
  5
5F
102
{ACAD_REACTORS
330
F0
330
F0
102
}
330
4B
100
AcDbEntity
  8
0
  6
Continuous
 62
     7
100
AcDbLine
 10
188.7995275176
 20
17.7714945827671
 30
0.0
 11
189.655184537377
 21
19.2535360148728
 31
0.0
  0
LINE
  5
60
102
{ACAD_REACTORS
330
F0
330
F0
102
}
330
4B
100
AcDbEntity
  8
0
  6
Continuous
 62
     7
100
AcDbLine
 10
189.655184537377
 20
19.2535360148728
 30
0.0
 11
189.655184537377
 21
14.2880685085818
 31
0.0
  0
LINE
  5
61
102
{ACAD_REACTORS
330
F0
330
F0
102
}
330
4B
100
AcDbEntity
  8
0
  6
Continuous
 62
     7
100
AcDbLine
 10
190.321851204044
 20
14.2880685085818
 30
0.0
 11
190.321851204044
 21
20.752698059307
 31
0.0
  0
LINE
  5
62
102
{ACAD_REACTORS
330
F0
330
F0
102
}
330
4B
100
AcDbEntity
  8
0
  6
Continuous
 62
     7
100
AcDbLine
 10
189.82741752042
 20
20.8851811655447
 30
0.0
 11
188.655189950303
 21
18.8548234560689
 31
0.0
  0
LINE
  5
63
102
{ACAD_REACTORS
330
F0
330
F0
102
}
330
4B
100
AcDbEntity
  8
0
  6
Continuous
 62
     7
100
AcDbLine
 10
188.655189950303
 20
18.8548234560689
 30
0.0
 11
187.482962380186
 21
20.8851811655447
 31
0.0
  0
LINE
  5
64
102
{ACAD_REACTORS
330
F1
330
F1
102
}
330
4B
100
AcDbEntity
  8
0
  6
Continuous
 62
     7
100
AcDbLine
 10
186.321857625773
 20
15.270660658657
 30
0.0
 11
186.321857625773
 21
19.9439783665993
 31
0.0
  0
LINE
  5
65
102
{ACAD_REACTORS
330
F1
330
F1
102
}
330
4B
100
AcDbEntity
  8
0
  6
Continuous
 62
     7
100
AcDbLine
 10
185.655190959106
 20
19.9439783665993
 30
0.0
 11
185.655190959106
 21
15.2706619304882
 31
0.0
  0
LINE
  5
66
102
{ACAD_REACTORS
330
F1
330
F1
102
}
330
4B
100
AcDbEntity
  8
0
  6
Continuous
 62
     7
100
AcDbLine
 10
185.988710425088
 20
14.6932029657285
 30
0.0
 11
188.15634562976
 21
13.4426441938023
 31
0.0
  0
LINE
  5
67
102
{ACAD_REACTORS
330
F1
330
F1
102
}
330
4B
100
AcDbEntity
  8
0
  6
Continuous
 62
     7
100
AcDbLine
 10
188.489493932086
 20
14.0201012511681
 30
0.0
 11
186.321857625773
 21
15.270660658657
 31
0.0
  0
LINE
  5
68
102
{ACAD_REACTORS
330
F2
330
F2
102
}
330
4B
100
AcDbEntity
  8
0
  6
Continuous
 62
     7
100
AcDbLine
 10
184.988523283636
 20
19.1539094835628
 30
0.0
 11
184.988523283636
 21
15.8473707016896
 31
0.0
  0
LINE
  5
69
102
{ACAD_REACTORS
330
F2
330
F2
102
}
330
4B
100
AcDbEntity
  8
0
  6
Continuous
 62
     7
100
AcDbLine
 10
184.32185661697
 20
15.8473707016896
 30
0.0
 11
184.32185661697
 21
19.1539094835628
 31
0.0
  0
ARC
  5
91
102
{ACAD_REACTORS
330
EF
330
EF
102
}
330
4B
100
AcDbEntity
  8
0
  6
Continuous
 62
     7
100
AcDbCircle
 10
191.321855608167
 20
15.0573018186531
 30
0.0
 40
0.3333333333339965
100
AcDbArc
 50
180.0
 51
299.9816393688164
  0
ARC
  5
92
102
{ACAD_REACTORS
330
EF
330
EF
102
}
330
4B
100
AcDbEntity
  8
0
  6
Continuous
 62
     7
100
AcDbCircle
 10
191.321855608167
 20
19.9439783665993
 30
0.0
 40
0.3333333333332604
100
AcDbArc
 50
60.01836063118353
 51
180.0
  0
ARC
  5
93
102
{ACAD_REACTORS
330
EF
330
EF
102
}
330
4B
100
AcDbEntity
  8
0
  6
Continuous
 62
     7
100
AcDbCircle
 10
192.691308338763
 20
19.1539094835628
 30
0.0
 40
0.3333333333332746
100
AcDbArc
 50
240.0183606311793
 51
60.01835942367227
  0
ARC
  5
94
102
{ACAD_REACTORS
330
EF
330
EF
102
}
330
4B
100
AcDbEntity
  8
0
  6
Continuous
 62
     7
100
AcDbCircle
 10
192.691308338763
 20
17.5006400926262
 30
0.0
 40
0.3333333333333997
100
AcDbArc
 50
270.0
 51
90.0
  0
ARC
  5
95
102
{ACAD_REACTORS
330
EF
330
EF
102
}
330
4B
100
AcDbEntity
  8
0
  6
Continuous
 62
     7
100
AcDbCircle
 10
192.691308338763
 20
15.8473707016896
 30
0.0
 40
0.3333333333332619
100
AcDbArc
 50
299.9816393688163
 51
119.9816393688206
  0
ARC
  5
96
102
{ACAD_REACTORS
330
F0
330
F0
102
}
330
4B
100
AcDbEntity
  8
0
  6
Continuous
 62
     7
100
AcDbCircle
 10
187.253494909038
 20
20.7526980593071
 30
0.0
 40
0.2649662124751274
100
AcDbArc
 50
30.00000000000922
 51
180.0
  0
ARC
  5
97
102
{ACAD_REACTORS
330
F0
330
F0
102
}
330
4B
100
AcDbEntity
  8
0
  6
Continuous
 62
     7
100
AcDbCircle
 10
187.321862029896
 20
15.8473707016896
 30
0.0
 40
0.3333333333330017
100
AcDbArc
 50
180.0
 51
0.0
  0
ARC
  5
98
102
{ACAD_REACTORS
330
F0
330
F0
102
}
330
4B
100
AcDbEntity
  8
0
  6
Continuous
 62
     7
100
AcDbCircle
 10
188.655189950303
 20
17.8548279161004
 30
0.0
 40
0.1666666666662864
100
AcDbArc
 50
210.0000000000623
 51
329.9999999999426
  0
ARC
  5
99
102
{ACAD_REACTORS
330
F0
330
F0
102
}
330
4B
100
AcDbEntity
  8
0
  6
Continuous
 62
     7
100
AcDbCircle
 10
189.98851787071
 20
14.2880685085818
 30
0.0
 40
0.3333333333330017
100
AcDbArc
 50
180.0
 51
0.0
  0
ARC
  5
9A
102
{ACAD_REACTORS
330
F0
330
F0
102
}
330
4B
100
AcDbEntity
  8
0
  6
Continuous
 62
     7
100
AcDbCircle
 10
190.056884991568
 20
20.752698059307
 30
0.0
 40
0.2649662124759971
100
AcDbArc
 50
0.0
 51
149.9999999999752
  0
ARC
  5
9B
102
{ACAD_REACTORS
330
F1
330
F1
102
}
330
4B
100
AcDbEntity
  8
0
  6
Continuous
 62
     7
100
AcDbCircle
 10
185.988524292439
 20
19.9439783665993
 30
0.0
 40
0.3333333333339965
100
AcDbArc
 50
0.0
 51
180.0
  0
ARC
  5
9C
102
{ACAD_REACTORS
330
F1
330
F1
102
}
330
4B
100
AcDbEntity
  8
0
  6
Continuous
 62
     7
100
AcDbCircle
 10
186.321859827834
 20
15.2706619304882
 30
0.0
 40
0.66666886872801
100
AcDbArc
 50
180.0
 51
240.0183606311481
  0
ARC
  5
9D
102
{ACAD_REACTORS
330
F1
330
F1
102
}
330
4B
100
AcDbEntity
  8
0
  6
Continuous
 62
     7
100
AcDbCircle
 10
188.322919780923
 20
13.7313727224852
 30
0.0
 40
0.3333333333332604
100
AcDbArc
 50
240.0183606311836
 51
60.01836063118368
  0
ARC
  5
9E
102
{ACAD_REACTORS
330
F2
330
F2
102
}
330
4B
100
AcDbEntity
  8
0
  6
Continuous
 62
     7
100
AcDbCircle
 10
184.655189950303
 20
15.8473707016896
 30
0.0
 40
0.3333333333330017
100
AcDbArc
 50
180.0
 51
0.0
  0
ARC
  5
9F
102
{ACAD_REACTORS
330
F2
330
F2
102
}
330
4B
100
AcDbEntity
  8
0
  6
Continuous
 62
     7
100
AcDbCircle
 10
184.655189950303
 20
19.1539094835628
 30
0.0
 40
0.3333333333330017
100
AcDbArc
 50
0.0
 51
180.0
  0
LWPOLYLINE
  5
B1
330
4B
100
AcDbEntity
  8
Skizziergeometrie_ISO_
  6
Continuous
 62
     7
100
AcDbPolyline
 90
        2
 70
     0
 43
0.5
 10
19.980189950303
 20
45.0006400926262
 10
19.980189950303
 20
10.0006400926262
  0
LWPOLYLINE
  5
B2
330
4B
100
AcDbEntity
  8
Skizziergeometrie_ISO_
  6
Continuous
 62
     7
100
AcDbPolyline
 90
        2
 70
     0
 43
0.5
 10
189.655184537377
 20
14.2880685085818
 10
189.655184537377
 20
19.2535360148728
  0
LWPOLYLINE
  5
B3
330
4B
100
AcDbEntity
  8
Skizziergeometrie_ISO_
  6
Continuous
 62
     7
100
AcDbPolyline
 90
        2
 70
     0
 43
0.5
 10
189.655184537377
 20
19.2535360148728
 10
188.7995275176
 20
17.7714945827671
  0
LWPOLYLINE
  5
B4
330
4B
100
AcDbEntity
  8
Skizziergeometrie_ISO_
  6
Continuous
 62
     7
100
AcDbPolyline
 90
        2
 70
     0
 43
0.5
 10
188.510852383006
 20
17.7714945827671
 10
187.655195363229
 20
19.2535360148728
  0
LWPOLYLINE
  5
B5
330
4B
100
AcDbEntity
  8
Skizziergeometrie_ISO_
  6
Continuous
 62
     7
100
AcDbPolyline
 90
        2
 70
     0
 43
0.5
 10
187.655195363229
 20
19.2535360148728
 10
187.655195363229
 20
15.8473707016896
  0
LWPOLYLINE
  5
B6
330
4B
100
AcDbEntity
  8
Skizziergeometrie_ISO_
  6
Continuous
 62
     7
100
AcDbPolyline
 90
        2
 70
     0
 43
0.5
 10
180.238754675162
 20
17.6450043569675
 10
188.655189950303
 20
22.500640092627
  0
LWPOLYLINE
  5
B7
330
4B
100
AcDbEntity
  8
Skizziergeometrie_ISO_
  6
Continuous
 62
     7
100
AcDbPolyline
 90
        2
 70
     0
 43
0.5
 10
188.655189950303
 20
22.500640092627
 10
197.071625225444
 20
17.6450043569675
  0
LWPOLYLINE
  5
B8
330
4B
100
AcDbEntity
  8
Skizziergeometrie_ISO_
  6
Continuous
 62
     7
100
AcDbPolyline
 90
        2
 70
     0
 43
0.5
 10
197.071625225444
 20
17.3562758282849
 10
188.655189950303
 20
12.5006400926254
  0
LWPOLYLINE
  5
B9
330
4B
100
AcDbEntity
  8
Skizziergeometrie_ISO_
  6
Continuous
 62
     7
100
AcDbPolyline
 90
        2
 70
     0
 43
0.5
 10
188.655189950303
 20
12.5006400926254
 10
180.238754675162
 20
17.3562758282849
  0
LWPOLYLINE
  5
BA
330
4B
100
AcDbEntity
  8
Skizziergeometrie_ISO_
  6
Continuous
 62
     7
100
AcDbPolyline
 90
        2
 70
     0
 43
0.5
 10
186.988528696563
 20
15.8473707016896
 10
186.988528696562
 20
20.7526980593071
  0
LWPOLYLINE
  5
BB
330
4B
100
AcDbEntity
  8
Skizziergeometrie_ISO_
  6
Continuous
 62
     7
100
AcDbPolyline
 90
        2
 70
     0
 43
0.5
 10
187.482962380186
 20
20.8851811655447
 10
188.655189950303
 20
18.8548234560689
  0
LWPOLYLINE
  5
BC
330
4B
100
AcDbEntity
  8
Skizziergeometrie_ISO_
  6
Continuous
 62
     7
100
AcDbPolyline
 90
        2
 70
     0
 43
0.5
 10
190.321851204044
 20
14.2880685085818
 10
190.321851204044
 20
20.752698059307
  0
LWPOLYLINE
  5
BD
330
4B
100
AcDbEntity
  8
Skizziergeometrie_ISO_
  6
Continuous
 62
     7
100
AcDbPolyline
 90
        2
 70
     0
 43
0.5
 10
189.82741752042
 20
20.8851811655447
 10
188.655189950303
 20
18.8548234560689
  0
LWPOLYLINE
  5
BE
330
4B
100
AcDbEntity
  8
Skizziergeometrie_ISO_
  6
Continuous
 62
     7
100
AcDbPolyline
 90
        2
 70
     0
 43
0.5
 10
185.655190959106
 20
15.2706619304882
 10
185.655190959106
 20
19.9439783665993
  0
LWPOLYLINE
  5
BF
330
4B
100
AcDbEntity
  8
Skizziergeometrie_ISO_
  6
Continuous
 62
     7
100
AcDbPolyline
 90
        2
 70
     0
 43
0.5
 10
186.321857625773
 20
19.9439783665993
 10
186.321857625773
 20
15.270660658657
  0
LWPOLYLINE
  5
C0
330
4B
100
AcDbEntity
  8
Skizziergeometrie_ISO_
  6
Continuous
 62
     7
100
AcDbPolyline
 90
        2
 70
     0
 43
0.5
 10
186.321857625773
 20
15.270660658657
 10
188.489493932086
 20
14.0201012511681
  0
LWPOLYLINE
  5
C1
330
4B
100
AcDbEntity
  8
Skizziergeometrie_ISO_
  6
Continuous
 62
     7
100
AcDbPolyline
 90
        2
 70
     0
 43
0.5
 10
188.15634562976
 20
13.4426441938023
 10
185.988710425088
 20
14.6932029657285
  0
LWPOLYLINE
  5
C2
330
4B
100
AcDbEntity
  8
Skizziergeometrie_ISO_
  6
Continuous
 62
     7
100
AcDbPolyline
 90
        2
 70
     0
 43
0.5
 10
184.988523283636
 20
19.1539094835628
 10
184.988523283636
 20
15.8473707016896
  0
LWPOLYLINE
  5
C3
330
4B
100
AcDbEntity
  8
Skizziergeometrie_ISO_
  6
Continuous
 62
     7
100
AcDbPolyline
 90
        2
 70
     0
 43
0.5
 10
184.32185661697
 20
15.8473707016896
 10
184.32185661697
 20
19.1539094835628
  0
LWPOLYLINE
  5
C4
330
4B
100
AcDbEntity
  8
Skizziergeometrie_ISO_
  6
Continuous
 62
     7
100
AcDbPolyline
 90
        2
 70
     0
 43
0.5
 10
191.48842975933
 20
20.2327068952822
 10
192.857882489926
 20
19.4426380122457
  0
LWPOLYLINE
  5
C5
330
4B
100
AcDbEntity
  8
Skizziergeometrie_ISO_
  6
Continuous
 62
     7
100
AcDbPolyline
 90
        2
 70
     0
 43
0.5
 10
192.5247341876
 20
18.8651809548799
 10
191.6551889415
 20
19.3668416737836
  0
LWPOLYLINE
  5
C6
330
4B
100
AcDbEntity
  8
Skizziergeometrie_ISO_
  6
Continuous
 62
     7
100
AcDbPolyline
 90
        2
 70
     0
 43
0.5
 10
191.6551889415
 20
19.3668416737836
 10
191.6551889415
 20
17.8339734259596
  0
LWPOLYLINE
  5
C7
330
4B
100
AcDbEntity
  8
Skizziergeometrie_ISO_
  6
Continuous
 62
     7
100
AcDbPolyline
 90
        2
 70
     0
 43
0.5
 10
191.6551889415
 20
17.8339734259596
 10
192.691308338763
 20
17.8339734259596
  0
LWPOLYLINE
  5
C8
330
4B
100
AcDbEntity
  8
Skizziergeometrie_ISO_
  6
Continuous
 62
     7
100
AcDbPolyline
 90
        2
 70
     0
 43
0.5
 10
192.691308338763
 20
17.1673067592928
 10
191.6551889415
 20
17.1673067592928
  0
LWPOLYLINE
  5
C9
330
4B
100
AcDbEntity
  8
Skizziergeometrie_ISO_
  6
Continuous
 62
     7
100
AcDbPolyline
 90
        2
 70
     0
 43
0.5
 10
191.6551889415
 20
17.1673067592928
 10
191.6551889415
 20
15.6344385114688
  0
LWPOLYLINE
  5
CA
330
4B
100
AcDbEntity
  8
Skizziergeometrie_ISO_
  6
Continuous
 62
     7
100
AcDbPolyline
 90
        2
 70
     0
 43
0.5
 10
191.6551889415
 20
15.6344385114688
 10
192.5247341876
 20
16.1360992303725
  0
LWPOLYLINE
  5
CB
330
4B
100
AcDbEntity
  8
Skizziergeometrie_ISO_
  6
Continuous
 62
     7
100
AcDbPolyline
 90
        2
 70
     0
 43
0.5
 10
192.857882489926
 20
15.5586421730067
 10
191.48842975933
 20
14.7685732899702
  0
LWPOLYLINE
  5
CC
330
4B
100
AcDbEntity
  8
Skizziergeometrie_ISO_
  6
Continuous
 62
     7
100
AcDbPolyline
 90
        2
 70
     0
 43
0.5
 10
190.988522274833
 20
15.0573018186531
 10
190.988522274833
 20
19.9439783665993
  0
LWPOLYLINE
  5
CD
330
4B
100
AcDbEntity
  8
Skizziergeometrie_ISO_
  6
Continuous
 62
     7
100
AcDbPolyline
 90
        2
 70
     0
 43
0.5
 10
177.330189950303
 20
25.0006400926262
 10
177.330189950303
 20
10.0006400926262
  0
LWPOLYLINE
  5
CE
330
4B
100
AcDbEntity
  8
Skizziergeometrie_ISO_
  6
Continuous
 62
     7
100
AcDbPolyline
 90
        2
 70
     0
 43
0.5
 10
159.980189950303
 20
25.0006400926262
 10
159.980189950303
 20
10.0006400926262
  0
LWPOLYLINE
  5
CF
330
4B
100
AcDbEntity
  8
Skizziergeometrie_ISO_
  6
Continuous
 62
     7
100
AcDbPolyline
 90
        2
 70
     0
 43
0.5
 10
49.9801899503031
 20
10.0006400926262
 10
49.9801899503031
 20
25.0006400926262
  0
LWPOLYLINE
  5
D0
330
4B
100
AcDbEntity
  8
Skizziergeometrie_ISO_
  6
Continuous
 62
     7
100
AcDbPolyline
 90
        2
 70
     0
 43
0.5
 10
44.980189950303
 20
45.0006400926262
 10
44.980189950303
 20
25.0006400926262
  0
LWPOLYLINE
  5
D1
330
4B
100
AcDbEntity
  8
Skizziergeometrie_ISO_
  6
Continuous
 62
     7
100
AcDbPolyline
 90
        2
 70
     0
 43
0.5
 10
26.980189950303
 20
45.0006400926262
 10
26.980189950303
 20
25.0006400926262
  0
LWPOLYLINE
  5
D2
330
4B
100
AcDbEntity
  8
Skizziergeometrie_ISO_
  6
Continuous
 62
     7
100
AcDbPolyline
 90
        2
 70
     0
 43
0.5
 10
19.980189950303
 20
17.5006400926262
 10
49.9801899503031
 20
17.5006400926262
  0
LWPOLYLINE
  5
D3
330
4B
100
AcDbEntity
  8
Skizziergeometrie_ISO_
  6
Continuous
 62
     7
100
AcDbPolyline
 90
        2
 70
     0
 43
0.5
 10
19.980189950303
 20
25.0006400926262
 10
199.980189950303
 20
25.0006400926262
  0
LWPOLYLINE
  5
D4
330
4B
100
AcDbEntity
  8
Skizziergeometrie_ISO_
  6
Continuous
 62
     7
100
AcDbPolyline
 90
        2
 70
     0
 43
0.5
 10
19.980189950303
 20
30.0006400926262
 10
199.980189950303
 20
30.0006400926262
  0
LWPOLYLINE
  5
D5
330
4B
100
AcDbEntity
  8
Skizziergeometrie_ISO_
  6
Continuous
 62
     7
100
AcDbPolyline
 90
        2
 70
     0
 43
0.5
 10
19.980189950303
 20
35.0006400926262
 10
199.980189950303
 20
35.0006400926262
  0
LWPOLYLINE
  5
D6
330
4B
100
AcDbEntity
  8
Skizziergeometrie_ISO_
  6
Continuous
 62
     7
100
AcDbPolyline
 90
        2
 70
     0
 43
0.5
 10
19.980189950303
 20
40.0006400926262
 10
199.980189950303
 20
40.0006400926262
  0
LWPOLYLINE
  5
D7
330
4B
100
AcDbEntity
  8
Skizziergeometrie_ISO_
  6
Continuous
 62
     7
100
AcDbPolyline
 90
        2
 70
     0
 43
0.5
 10
19.980189950303
 20
45.0006400926262
 10
199.980189950303
 20
45.0006400926262
  0
LWPOLYLINE
  5
D8
330
4B
100
AcDbEntity
  8
Skizziergeometrie_ISO_
  6
Continuous
 62
     7
100
AcDbPolyline
 90
        2
 70
     0
 43
0.5
 10
188.510852383006
 20
17.77149458276709
 42
0.57735026918893
 10
188.7995275176
 20
17.77149458276711
  0
LWPOLYLINE
  5
D9
330
4B
100
AcDbEntity
  8
Skizziergeometrie_ISO_
  6
Continuous
 62
     7
100
AcDbPolyline
 90
        2
 70
     0
 43
0.5
 10
185.655190959106
 20
15.2706619304882
 42
0.26803505952205
 10
185.988710425088
 20
14.6932029657285
  0
LWPOLYLINE
  5
DA
330
4B
100
AcDbEntity
  8
Skizziergeometrie_ISO_
  6
Continuous
 62
     7
100
AcDbPolyline
 90
        2
 70
     0
 43
0.5
 10
180.238754675162
 20
17.6450043569675
 42
0.57756392459859
 10
180.238754675162
 20
17.3562758282849
  0
LWPOLYLINE
  5
DB
330
4B
100
AcDbEntity
  8
Skizziergeometrie_ISO_
  6
Continuous
 62
     7
100
AcDbPolyline
 90
        2
 70
     0
 43
0.5
 10
197.071625225444
 20
17.3562758282849
 42
0.57756392459859
 10
197.071625225444
 20
17.6450043569675
  0
LWPOLYLINE
  5
DC
330
4B
100
AcDbEntity
  8
Skizziergeometrie_ISO_
  6
Continuous
 62
     7
100
AcDbPolyline
 90
        2
 70
     0
 43
0.5
 10
191.48842975933
 20
20.2327068952822
 42
0.57724345630757
 10
190.988522274833
 20
19.9439783665993
  0
LWPOLYLINE
  5
DD
330
4B
100
AcDbEntity
  8
Skizziergeometrie_ISO_
  6
Continuous
 62
     7
100
AcDbPolyline
 90
        2
 70
     0
 43
0.5
 10
190.988522274833
 20
15.0573018186531
 42
0.57724345630757
 10
191.48842975933
 20
14.7685732899702
  0
LWPOLYLINE
  5
DE
330
4B
100
AcDbEntity
  8
Skizziergeometrie_ISO_
  6
Continuous
 62
     7
100
AcDbPolyline
 90
        2
 70
     0
 43
0.5
 10
187.482962380186
 20
20.8851811655447
 42
0.76732698797888
 10
186.988528696562
 20
20.7526980593071
  0
LWPOLYLINE
  5
DF
330
4B
100
AcDbEntity
  8
Skizziergeometrie_ISO_
  6
Continuous
 62
     7
100
AcDbPolyline
 90
        2
 70
     0
 43
0.5
 10
186.988528696563
 20
15.8473707016896
 42
1.0
 10
187.655195363229
 20
15.8473707016896
  0
LWPOLYLINE
  5
E0
330
4B
100
AcDbEntity
  8
Skizziergeometrie_ISO_
  6
Continuous
 62
     7
100
AcDbPolyline
 90
        2
 70
     0
 43
0.5
 10
189.655184537377
 20
14.2880685085818
 42
1.0
 10
190.321851204044
 20
14.2880685085818
  0
LWPOLYLINE
  5
E1
330
4B
100
AcDbEntity
  8
Skizziergeometrie_ISO_
  6
Continuous
 62
     7
100
AcDbPolyline
 90
        2
 70
     0
 43
0.5
 10
190.321851204044
 20
20.752698059307
 42
0.76732698797879
 10
189.82741752042
 20
20.8851811655447
  0
LWPOLYLINE
  5
E2
330
4B
100
AcDbEntity
  8
Skizziergeometrie_ISO_
  6
Continuous
 62
     7
100
AcDbPolyline
 90
        2
 70
     0
 43
0.5
 10
186.321857625773
 20
19.9439783665993
 42
1.0
 10
185.655190959106
 20
19.9439783665993
  0
LWPOLYLINE
  5
E3
330
4B
100
AcDbEntity
  8
Skizziergeometrie_ISO_
  6
Continuous
 62
     7
100
AcDbPolyline
 90
        2
 70
     0
 43
0.5
 10
188.15634562976
 20
13.4426441938023
 42
1.0
 10
188.489493932086
 20
14.0201012511681
  0
LWPOLYLINE
  5
E4
330
4B
100
AcDbEntity
  8
Skizziergeometrie_ISO_
  6
Continuous
 62
     7
100
AcDbPolyline
 90
        2
 70
     0
 43
0.5
 10
184.988523283636
 20
19.1539094835628
 42
1.0
 10
184.32185661697
 20
19.1539094835628
  0
LWPOLYLINE
  5
E5
330
4B
100
AcDbEntity
  8
Skizziergeometrie_ISO_
  6
Continuous
 62
     7
100
AcDbPolyline
 90
        2
 70
     0
 43
0.5
 10
184.32185661697
 20
15.8473707016896
 42
1.0
 10
184.988523283636
 20
15.8473707016896
  0
LWPOLYLINE
  5
E6
330
4B
100
AcDbEntity
  8
Skizziergeometrie_ISO_
  6
Continuous
 62
     7
100
AcDbPolyline
 90
        2
 70
     0
 43
0.5
 10
192.5247341876
 20
18.8651809548799
 42
1.00000000000005
 10
192.857882489926
 20
19.4426380122457
  0
LWPOLYLINE
  5
E7
330
4B
100
AcDbEntity
  8
Skizziergeometrie_ISO_
  6
Continuous
 62
     7
100
AcDbPolyline
 90
        2
 70
     0
 43
0.5
 10
192.691308338763
 20
17.1673067592928
 42
1.0
 10
192.691308338763
 20
17.8339734259596
  0
LWPOLYLINE
  5
E8
330
4B
100
AcDbEntity
  8
Skizziergeometrie_ISO_
  6
Continuous
 62
     7
100
AcDbPolyline
 90
        2
 70
     0
 43
0.5
 10
192.857882489926
 20
15.5586421730067
 42
1.00000000000005
 10
192.5247341876
 20
16.1360992303725
  0
MTEXT
  5
EA
330
4B
100
AcDbEntity
  8
Symbole_ISO_
 62
     7
100
AcDbMText
 10
39.980189950303
 20
21.2506400926262
 30
0.0
 40
3.49999994039535
 41
0.0
 71
     5
 72
     1
  1
04.01.2007
  7
CONVERTER_11
 73
     1
 44
1.0
  0
MTEXT
  5
EC
330
4B
100
AcDbEntity
  8
Symbole_ISO_
 62
     7
100
AcDbMText
 10
168.655189950303
 20
22.5006400926262
 30
0.0
 40
2.5
 41
0.0
 71
     5
 72
     1
  1
Scale
  7
CONVERTER_12
 73
     1
 44
1.0
  0
MTEXT
  5
ED
330
4B
100
AcDbEntity
  8
Symbole_ISO_
 62
     7
100
AcDbMText
 10
20.980189950303
 20
13.7506400926262
 30
0.0
 40
2.5
 41
0.0
 71
     4
 72
     1
  1
Sign.
  7
CONVERTER_12
 73
     1
 44
1.0
  0
MTEXT
  5
EE
330
4B
100
AcDbEntity
  8
Symbole_ISO_
 62
     7
100
AcDbMText
 10
20.980189950303
 20
21.2506400926262
 30
0.0
 40
2.5
 41
0.0
 71
     4
 72
     1
  1
Date
  7
CONVERTER_12
 73
     1
 44
1.0
  0
HATCH
  5
EF
330
4B
100
AcDbEntity
  8
Schraffur
  6
Continuous
 62
     7
100
AcDbHatch
 10
0.0
 20
0.0
 30
0.0
210
0.0
220
0.0
230
1.0
  2
SOLID
 70
     1
 71
     1
 91
        1
 92
        1
 93
       14
 72
     2
 10
192.691308338763
 20
19.1539094835628
 40
0.3333333333332746
 50
299.9816405763278
 51
479.9816393688208
 73
     0
 72
     1
 10
192.5247341876
 20
18.8651809548799
 11
191.6551889415
 21
19.3668416737836
 72
     1
 10
191.6551889415
 20
19.3668416737836
 11
191.6551889415
 21
17.8339734259596
 72
     1
 10
191.6551889415
 20
17.8339734259596
 11
192.691308338763
 21
17.8339734259596
 72
     2
 10
192.691308338763
 20
17.5006400926262
 40
0.3333333333333997
 50
270.0
 51
450.0
 73
     0
 72
     1
 10
192.691308338763
 20
17.1673067592928
 11
191.6551889415
 21
17.1673067592928
 72
     1
 10
191.6551889415
 20
17.1673067592928
 11
191.6551889415
 21
15.6344385114688
 72
     1
 10
191.6551889415
 20
15.6344385114688
 11
192.5247341876
 21
16.1360992303725
 72
     2
 10
192.691308338763
 20
15.8473707016896
 40
0.3333333333332619
 50
240.0183606311795
 51
420.0183606311837
 73
     0
 72
     1
 10
192.857882489926
 20
15.5586421730067
 11
191.48842975933
 21
14.7685732899702
 72
     2
 10
191.321855608167
 20
15.0573018186531
 40
0.3333333333339965
 50
60.01836063118353
 51
180.0
 73
     0
 72
     1
 10
190.988522274833
 20
15.0573018186531
 11
190.988522274833
 21
19.9439783665993
 72
     2
 10
191.321855608167
 20
19.9439783665993
 40
0.3333333333332604
 50
180.0
 51
299.9816393688164
 73
     0
 72
     1
 10
191.48842975933
 20
20.2327068952822
 11
192.857882489926
 21
19.4426380122457
 97
       14
330
53
330
91
330
54
330
92
330
55
330
93
330
56
330
57
330
58
330
94
330
59
330
5A
330
5B
330
95
 75
     0
 76
     1
 98
        1
 10
0.0
 20
0.0
  0
HATCH
  5
F0
330
4B
100
AcDbEntity
  8
Schraffur
  6
Continuous
 62
     7
100
AcDbHatch
 10
0.0
 20
0.0
 30
0.0
210
0.0
220
0.0
230
1.0
  2
SOLID
 70
     1
 71
     1
 91
        1
 92
        1
 93
       13
 72
     2
 10
187.253494909038
 20
20.7526980593071
 40
0.2649662124751274
 50
30.00000000000922
 51
180.0
 73
     1
 72
     1
 10
186.988528696562
 20
20.7526980593071
 11
186.988528696563
 21
15.8473707016896
 72
     2
 10
187.321862029896
 20
15.8473707016896
 40
0.3333333333330017
 50
180.0
 51
360.0
 73
     1
 72
     1
 10
187.655195363229
 20
15.8473707016896
 11
187.655195363229
 21
19.2535360148728
 72
     1
 10
187.655195363229
 20
19.2535360148728
 11
188.510852383006
 21
17.7714945827671
 72
     2
 10
188.655189950303
 20
17.8548279161004
 40
0.1666666666662864
 50
210.0000000000623
 51
329.9999999999426
 73
     1
 72
     1
 10
188.7995275176
 20
17.7714945827671
 11
189.655184537377
 21
19.2535360148728
 72
     1
 10
189.655184537377
 20
19.2535360148728
 11
189.655184537377
 21
14.2880685085818
 72
     2
 10
189.98851787071
 20
14.2880685085818
 40
0.3333333333330017
 50
180.0
 51
360.0
 73
     1
 72
     1
 10
190.321851204044
 20
14.2880685085818
 11
190.321851204044
 21
20.752698059307
 72
     2
 10
190.056884991568
 20
20.752698059307
 40
0.2649662124759971
 50
0.0
 51
149.9999999999752
 73
     1
 72
     1
 10
189.82741752042
 20
20.8851811655447
 11
188.655189950303
 21
18.8548234560689
 72
     1
 10
188.655189950303
 20
18.8548234560689
 11
187.482962380186
 21
20.8851811655447
 97
       13
330
62
330
9A
330
61
330
99
330
60
330
5F
330
98
330
5E
330
5D
330
97
330
5C
330
96
330
63
 75
     0
 76
     1
 98
        1
 10
0.0
 20
0.0
  0
HATCH
  5
F1
330
4B
100
AcDbEntity
  8
Schraffur
  6
Continuous
 62
     7
100
AcDbHatch
 10
0.0
 20
0.0
 30
0.0
210
0.0
220
0.0
230
1.0
  2
SOLID
 70
     1
 71
     1
 91
        1
 92
        1
 93
        7
 72
     1
 10
186.321857625773
 20
15.270660658657
 11
186.321857625773
 21
19.9439783665993
 72
     2
 10
185.988524292439
 20
19.9439783665993
 40
0.3333333333339965
 50
0.0
 51
180.0
 73
     1
 72
     1
 10
185.655190959106
 20
19.9439783665993
 11
185.655190959106
 21
15.2706619304882
 72
     2
 10
186.321859827834
 20
15.2706619304882
 40
0.66666886872801
 50
180.0
 51
240.0183606311481
 73
     1
 72
     1
 10
185.988710425088
 20
14.6932029657285
 11
188.15634562976
 21
13.4426441938023
 72
     2
 10
188.322919780923
 20
13.7313727224852
 40
0.3333333333332604
 50
240.0183606311836
 51
420.0183606311837
 73
     1
 72
     1
 10
188.489493932086
 20
14.0201012511681
 11
186.321857625773
 21
15.270660658657
 97
        7
330
9D
330
66
330
9C
330
65
330
9B
330
64
330
67
 75
     0
 76
     1
 98
        1
 10
0.0
 20
0.0
  0
HATCH
  5
F2
330
4B
100
AcDbEntity
  8
Schraffur
  6
Continuous
 62
     7
100
AcDbHatch
 10
0.0
 20
0.0
 30
0.0
210
0.0
220
0.0
230
1.0
  2
SOLID
 70
     1
 71
     1
 91
        1
 92
        1
 93
        4
 72
     1
 10
184.988523283636
 20
19.1539094835628
 11
184.988523283636
 21
15.8473707016896
 72
     2
 10
184.655189950303
 20
15.8473707016896
 40
0.3333333333330017
 50
0.0
 51
180.0
 73
     0
 72
     1
 10
184.32185661697
 20
15.8473707016896
 11
184.32185661697
 21
19.1539094835628
 72
     2
 10
184.655189950303
 20
19.1539094835628
 40
0.3333333333330017
 50
180.0
 51
360.0
 73
     0
 97
        4
330
68
330
9E
330
69
330
9F
 75
     0
 76
     1
 98
        1
 10
0.0
 20
0.0
  0
ENDBLK
  5
4D
330
4B
100
AcDbEntity
  8
0
100
AcDbBlockEnd
  0
BLOCK
  5
4F
330
4E
100
AcDbEntity
  8
0
100
AcDbBlockBegin
  2
Ränder_Ilme_Rahmen_A4_quer
 70
     0
 10
0.0
 20
0.0
 30
0.0
  3
Ränder_Ilme_Rahmen_A4_quer
  1

  0
LWPOLYLINE
  5
F8
330
4E
100
AcDbEntity
  8
Skizziergeometrie_ISO_
  6
Continuous
 62
     7
100
AcDbPolyline
 90
        2
 70
     0
 43
0.5
 10
287.0
 20
190.0
 10
287.0
 20
10.0
  0
LWPOLYLINE
  5
F9
330
4E
100
AcDbEntity
  8
Skizziergeometrie_ISO_
  6
Continuous
 62
     7
100
AcDbPolyline
 90
        2
 70
     0
 43
0.5
 10
148.5
 20
210.0
 10
148.5
 20
196.0
  0
LWPOLYLINE
  5
FA
330
4E
100
AcDbEntity
  8
Skizziergeometrie_ISO_
  6
Continuous
 62
     7
100
AcDbPolyline
 90
        2
 70
     0
 43
0.5
 10
9.99999999999998
 20
9.99999999999995
 10
287.0
 20
10.0
  0
LWPOLYLINE
  5
FB
330
4E
100
AcDbEntity
  8
Skizziergeometrie_ISO_
  6
Continuous
 62
     7
100
AcDbPolyline
 90
        2
 70
     0
 43
0.5
 10
10.0
 20
190.0
 10
287.0
 20
190.0
  0
LWPOLYLINE
  5
FC
330
4E
100
AcDbEntity
  8
Skizziergeometrie_ISO_
  6
Continuous
 62
     7
100
AcDbPolyline
 90
        2
 70
     0
 43
0.5
 10
9.99999999999998
 20
9.99999999999995
 10
10.0
 20
190.0
  0
MTEXT
  5
FD
330
4E
100
AcDbEntity
  8
Symbole_ISO_
 62
     7
100
AcDbMText
 10
148.5
 20
196.0
 30
0.0
 40
3.5
 41
0.0
 71
     2
 72
     1
  1
Diritti riservati     All rights reseved
  7
CONVERTER_12
 73
     1
 44
1.0
  0
ENDBLK
  5
50
330
4E
100
AcDbEntity
  8
0
100
AcDbBlockEnd
  0
BLOCK
  5
33B
330
334
100
AcDbEntity
  8
0
100
AcDbBlockBegin
  2
*D3
 70
     1
 10
0.0
 20
0.0
 30
0.0
  3
*D3
  1

  0
LINE
  5
335
330
334
100
AcDbEntity
  8
Bemaßungen_TC_020513_DIN_
  6
Continuous
 62
     7
100
AcDbLine
 10
482.194989730522
 20
336.3232328357732
 30
0.0
 11
406.194989730516
 21
336.3232328357732
 31
0.0
  0
LINE
  5
336
330
334
100
AcDbEntity
  8
Bemaßungen_TC_020513_DIN_
  6
Continuous
 62
     7
100
AcDbLine
 10
482.194989730522
 20
248.5732224001711
 30
0.0
 11
482.194989730522
 21
340.3232328357732
 31
0.0
  0
LINE
  5
337
330
334
100
AcDbEntity
  8
Bemaßungen_TC_020513_DIN_
  6
Continuous
 62
     7
100
AcDbLine
 10
406.194989730516
 20
306.3232224001711
 30
0.0
 11
406.194989730516
 21
340.3232328357732
 31
0.0
  0
SOLID
  5
338
330
334
100
AcDbEntity
  8
Bemaßungen_TC_020513_DIN_
 62
     7
100
AcDbTrace
 10
477.194989730522
 20
335.6649703478362
 30
0.0
 11
477.194989730522
 21
336.9814953237101
 31
0.0
 12
482.194989730522
 22
336.3232328357732
 32
0.0
 13
482.194989730522
 23
336.3232328357732
 33
0.0
  0
SOLID
  5
339
330
334
100
AcDbEntity
  8
Bemaßungen_TC_020513_DIN_
 62
     7
100
AcDbTrace
 10
411.194989730516
 20
336.9814953237101
 30
0.0
 11
411.194989730516
 21
335.6649703478362
 31
0.0
 12
406.194989730516
 22
336.3232328357732
 32
0.0
 13
406.194989730516
 23
336.3232328357732
 33
0.0
  0
MTEXT
  5
33A
330
334
100
AcDbEntity
  8
Bemaßungen_TC_020513_DIN_
 62
     7
100
AcDbMText
 10
442.0357240453972
 20
341.6408888993772
 30
0.0
 40
7.0
 41
0.0
 71
     7
 72
     1
  1
76
  7
CONVERTER_15
 11
0.9999999999882478
 21
4.848136811095759E-6
 31
0.0
 73
     1
 44
0.60024009603842
  0
ENDBLK
  5
33C
330
334
100
AcDbEntity
  8
0
100
AcDbBlockEnd
  0
BLOCK
  5
346
330
33F
100
AcDbEntity
  8
0
100
AcDbBlockBegin
  2
*D4
 70
     1
 10
0.0
 20
0.0
 30
0.0
  3
*D4
  1

  0
LINE
  5
340
330
33F
100
AcDbEntity
  8
Bemaßungen_TC_020513_DIN_
  6
Continuous
 62
     7
100
AcDbLine
 10
537.4449897305125
 20
180.823222400171
 30
0.0
 11
537.4449897305125
 21
253.823222400171
 31
0.0
  0
LINE
  5
341
330
33F
100
AcDbEntity
  8
Bemaßungen_TC_020513_DIN_
  6
Continuous
 62
     7
100
AcDbLine
 10
483.444989730512
 20
180.823222400171
 30
0.0
 11
541.4449897305125
 21
180.823222400171
 31
0.0
  0
LINE
  5
342
330
33F
100
AcDbEntity
  8
Bemaßungen_TC_020513_DIN_
  6
Continuous
 62
     7
100
AcDbLine
 10
471.944989730516
 20
253.823222400171
 30
0.0
 11
541.4449897305125
 21
253.823222400171
 31
0.0
  0
SOLID
  5
343
330
33F
100
AcDbEntity
  8
Bemaßungen_TC_020513_DIN_
 62
     7
100
AcDbTrace
 10
536.7867272425755
 20
185.823222400171
 30
0.0
 11
538.1032522184495
 21
185.823222400171
 31
0.0
 12
537.4449897305125
 22
180.823222400171
 32
0.0
 13
537.4449897305125
 23
180.823222400171
 33
0.0
  0
SOLID
  5
344
330
33F
100
AcDbEntity
  8
Bemaßungen_TC_020513_DIN_
 62
     7
100
AcDbTrace
 10
538.1032522184495
 20
248.823222400171
 30
0.0
 11
536.7867272425755
 21
248.823222400171
 31
0.0
 12
537.4449897305125
 22
253.823222400171
 32
0.0
 13
537.4449897305125
 23
253.823222400171
 33
0.0
  0
MTEXT
  5
345
330
33F
100
AcDbEntity
  8
Bemaßungen_TC_020513_DIN_
 62
     7
100
AcDbMText
 10
532.1225412634344
 20
215.1615625547873
 30
0.0
 40
7.0
 41
0.0
 71
     7
 72
     1
  1
73
  7
CONVERTER_15
 11
0.0
 21
1.0
 31
0.0
 73
     1
 44
0.60024009603842
  0
ENDBLK
  5
347
330
33F
100
AcDbEntity
  8
0
100
AcDbBlockEnd
  0
BLOCK
  5
353
330
34A
100
AcDbEntity
  8
0
100
AcDbBlockBegin
  2
*D5
 70
     1
 10
0.0
 20
0.0
 30
0.0
  3
*D5
  1

  0
LINE
  5
34B
330
34A
100
AcDbEntity
  8
Bemaßungen_TC_020513_DIN_
  6
Continuous
 62
     7
100
AcDbLine
 10
501.4449897305121
 20
194.823222400171
 30
0.0
 11
501.4449897305121
 21
184.823222400171
 31
0.0
  0
LINE
  5
34C
330
34A
100
AcDbEntity
  8
Bemaßungen_TC_020513_DIN_
  6
Continuous
 62
     7
100
AcDbLine
 10
501.4449897305121
 20
184.823222400171
 30
0.0
 11
501.4449897305121
 21
180.823222400171
 31
0.0
  0
LINE
  5
34D
330
34A
100
AcDbEntity
  8
Bemaßungen_TC_020513_DIN_
  6
Continuous
 62
     7
100
AcDbLine
 10
501.4449897305121
 20
180.823222400171
 30
0.0
 11
501.4449897305121
 21
161.090664735097
 31
0.0
  0
LINE
  5
34E
330
34A
100
AcDbEntity
  8
Bemaßungen_TC_020513_DIN_
  6
Continuous
 62
     7
100
AcDbLine
 10
483.444989730512
 20
184.823222400171
 30
0.0
 11
505.4449897305121
 21
184.823222400171
 31
0.0
  0
LINE
  5
34F
330
34A
100
AcDbEntity
  8
Bemaßungen_TC_020513_DIN_
  6
Continuous
 62
     7
100
AcDbLine
 10
483.444989730512
 20
180.823222400171
 30
0.0
 11
505.4449897305121
 21
180.823222400171
 31
0.0
  0
SOLID
  5
350
330
34A
100
AcDbEntity
  8
Bemaßungen_TC_020513_DIN_
 62
     7
100
AcDbTrace
 10
500.7867272425751
 20
189.823222400171
 30
0.0
 11
502.103252218449
 21
189.823222400171
 31
0.0
 12
501.4449897305121
 22
184.823222400171
 32
0.0
 13
501.4449897305121
 23
184.823222400171
 33
0.0
  0
SOLID
  5
351
330
34A
100
AcDbEntity
  8
Bemaßungen_TC_020513_DIN_
 62
     7
100
AcDbTrace
 10
502.103252218449
 20
175.823222400171
 30
0.0
 11
500.7867272425751
 21
175.823222400171
 31
0.0
 12
501.4449897305121
 22
180.823222400171
 32
0.0
 13
501.4449897305121
 23
180.823222400171
 33
0.0
  0
MTEXT
  5
352
330
34A
100
AcDbEntity
  8
Bemaßungen_TC_020513_DIN_
 62
     7
100
AcDbMText
 10
496.344989730512
 20
161.090664735097
 30
0.0
 40
7.0
 41
0.0
 71
     7
 72
     1
  1
4
  7
CONVERTER_15
 11
0.0
 21
1.0
 31
0.0
 73
     1
 44
0.60024009603842
  0
ENDBLK
  5
354
330
34A
100
AcDbEntity
  8
0
100
AcDbBlockEnd
  0
BLOCK
  5
35E
330
357
100
AcDbEntity
  8
0
100
AcDbBlockBegin
  2
*D6
 70
     1
 10
0.0
 20
0.0
 30
0.0
  3
*D6
  1

  0
LINE
  5
358
330
357
100
AcDbEntity
  8
Bemaßungen_TC_020513_DIN_
  6
Continuous
 62
     7
100
AcDbLine
 10
482.444989730512
 20
136.8232328357724
 30
0.0
 11
425.444989730512
 21
136.8232328357724
 31
0.0
  0
LINE
  5
359
330
357
100
AcDbEntity
  8
Bemaßungen_TC_020513_DIN_
  6
Continuous
 62
     7
100
AcDbLine
 10
482.444989730512
 20
178.8232224001706
 30
0.0
 11
482.444989730512
 21
132.8232328357724
 31
0.0
  0
LINE
  5
35A
330
357
100
AcDbEntity
  8
Bemaßungen_TC_020513_DIN_
  6
Continuous
 62
     7
100
AcDbLine
 10
425.444989730512
 20
178.8232224001706
 30
0.0
 11
425.444989730512
 21
132.8232328357724
 31
0.0
  0
SOLID
  5
35B
330
357
100
AcDbEntity
  8
Bemaßungen_TC_020513_DIN_
 62
     7
100
AcDbTrace
 10
477.444989730512
 20
136.1649703478354
 30
0.0
 11
477.444989730512
 21
137.4814953237094
 31
0.0
 12
482.444989730512
 22
136.8232328357724
 32
0.0
 13
482.444989730512
 23
136.8232328357724
 33
0.0
  0
SOLID
  5
35C
330
357
100
AcDbEntity
  8
Bemaßungen_TC_020513_DIN_
 62
     7
100
AcDbTrace
 10
430.444989730512
 20
137.4814953237094
 30
0.0
 11
430.444989730512
 21
136.1649703478354
 31
0.0
 12
425.444989730512
 22
136.8232328357724
 32
0.0
 13
425.444989730512
 23
136.8232328357724
 33
0.0
  0
MTEXT
  5
35D
330
357
100
AcDbEntity
  8
Bemaßungen_TC_020513_DIN_
 62
     7
100
AcDbMText
 10
451.7896872104651
 20
141.4505480558455
 30
0.0
 40
7.0
 41
0.0
 71
     7
 72
     1
  1
52
  7
CONVERTER_15
 11
0.9999999999882478
 21
4.848136811095759E-6
 31
0.0
 73
     1
 44
0.60024009603842
  0
ENDBLK
  5
35F
330
357
100
AcDbEntity
  8
0
100
AcDbBlockEnd
  0
BLOCK
  5
369
330
362
100
AcDbEntity
  8
0
100
AcDbBlockBegin
  2
*D7
 70
     1
 10
0.0
 20
0.0
 30
0.0
  3
*D7
  1

  0
LINE
  5
363
330
362
100
AcDbEntity
  8
Bemaßungen_TC_020513_DIN_
  6
Continuous
 62
     7
100
AcDbLine
 10
476.444989730514
 20
155.8232328357723
 30
0.0
 11
431.444989730514
 21
155.8232328357723
 31
0.0
  0
LINE
  5
364
330
362
100
AcDbEntity
  8
Bemaßungen_TC_020513_DIN_
  6
Continuous
 62
     7
100
AcDbLine
 10
476.444989730514
 20
173.8232224001706
 30
0.0
 11
476.444989730514
 21
151.8232328357723
 31
0.0
  0
LINE
  5
365
330
362
100
AcDbEntity
  8
Bemaßungen_TC_020513_DIN_
  6
Continuous
 62
     7
100
AcDbLine
 10
431.444989730514
 20
173.8232224001706
 30
0.0
 11
431.444989730514
 21
151.8232328357723
 31
0.0
  0
SOLID
  5
366
330
362
100
AcDbEntity
  8
Bemaßungen_TC_020513_DIN_
 62
     7
100
AcDbTrace
 10
471.444989730514
 20
155.1649703478353
 30
0.0
 11
471.444989730514
 21
156.4814953237093
 31
0.0
 12
476.444989730514
 22
155.8232328357723
 32
0.0
 13
476.444989730514
 23
155.8232328357723
 33
0.0
  0
SOLID
  5
367
330
362
100
AcDbEntity
  8
Bemaßungen_TC_020513_DIN_
 62
     7
100
AcDbTrace
 10
436.444989730514
 20
156.4814953237093
 30
0.0
 11
436.444989730514
 21
155.1649703478353
 31
0.0
 12
431.444989730514
 22
155.8232328357723
 32
0.0
 13
431.444989730514
 23
155.8232328357723
 33
0.0
  0
MTEXT
  5
368
330
362
100
AcDbEntity
  8
Bemaßungen_TC_020513_DIN_
 62
     7
100
AcDbMText
 10
451.5875657916402
 20
160.4505479710031
 30
0.0
 40
7.0
 41
0.0
 71
     7
 72
     1
  1
40
  7
CONVERTER_15
 11
0.9999999999882478
 21
4.848136811095759E-6
 31
0.0
 73
     1
 44
0.60024009603842
  0
ENDBLK
  5
36A
330
362
100
AcDbEntity
  8
0
100
AcDbBlockEnd
  0
BLOCK
  5
374
330
36D
100
AcDbEntity
  8
0
100
AcDbBlockBegin
  2
*D8
 70
     1
 10
0.0
 20
0.0
 30
0.0
  3
*D8
  1

  0
LINE
  5
36E
330
36D
100
AcDbEntity
  8
Bemaßungen_TC_020513_DIN_
  6
Continuous
 62
     7
100
AcDbLine
 10
301.399163379975
 20
136.8232432713873
 30
0.0
 11
207.899163379975
 21
136.8232432713873
 31
0.0
  0
LINE
  5
36F
330
36D
100
AcDbEntity
  8
Bemaßungen_TC_020513_DIN_
  6
Continuous
 62
     7
100
AcDbLine
 10
301.399163379975
 20
178.8232224001711
 30
0.0
 11
301.399163379975
 21
132.8232432713873
 31
0.0
  0
LINE
  5
370
330
36D
100
AcDbEntity
  8
Bemaßungen_TC_020513_DIN_
  6
Continuous
 62
     7
100
AcDbLine
 10
207.899163379975
 20
178.8232224001711
 30
0.0
 11
207.899163379975
 21
132.8232432713873
 31
0.0
  0
SOLID
  5
371
330
36D
100
AcDbEntity
  8
Bemaßungen_TC_020513_DIN_
 62
     7
100
AcDbTrace
 10
296.399163379975
 20
136.1649807834503
 30
0.0
 11
296.399163379975
 21
137.4815057593243
 31
0.0
 12
301.399163379975
 22
136.8232432713873
 32
0.0
 13
301.399163379975
 23
136.8232432713873
 33
0.0
  0
SOLID
  5
372
330
36D
100
AcDbEntity
  8
Bemaßungen_TC_020513_DIN_
 62
     7
100
AcDbTrace
 10
212.899163379975
 20
137.4815057593243
 30
0.0
 11
212.899163379975
 21
136.1649807834503
 31
0.0
 12
207.899163379975
 22
136.8232432713873
 32
0.0
 13
207.899163379975
 23
136.8232432713873
 33
0.0
  0
MTEXT
  5
373
330
36D
100
AcDbEntity
  8
Bemaßungen_TC_020513_DIN_
 62
     7
100
AcDbMText
 10
251.7965017036802
 20
144.4510073328634
 30
0.0
 40
7.0
 41
0.0
 71
     7
 72
     1
  1
93,5
  7
CONVERTER_15
 11
0.9999999999882478
 21
4.848136811095759E-6
 31
0.0
 73
     1
 44
0.60024009603842
  0
ENDBLK
  5
375
330
36D
100
AcDbEntity
  8
0
100
AcDbBlockEnd
  0
BLOCK
  5
37F
330
378
100
AcDbEntity
  8
0
100
AcDbBlockBegin
  2
*D9
 70
     1
 10
0.0
 20
0.0
 30
0.0
  3
*D9
  1

  0
LINE
  5
379
330
378
100
AcDbEntity
  8
Bemaßungen_TC_020513_DIN_
  6
Continuous
 62
     7
100
AcDbLine
 10
213.649163379975
 20
155.8232328357731
 30
0.0
 11
295.649163379975
 21
155.8232328357731
 31
0.0
  0
LINE
  5
37A
330
378
100
AcDbEntity
  8
Bemaßungen_TC_020513_DIN_
  6
Continuous
 62
     7
100
AcDbLine
 10
213.649163379975
 20
173.823222400171
 30
0.0
 11
213.649163379975
 21
151.8232328357731
 31
0.0
  0
LINE
  5
37B
330
378
100
AcDbEntity
  8
Bemaßungen_TC_020513_DIN_
  6
Continuous
 62
     7
100
AcDbLine
 10
295.649163379975
 20
173.823222400171
 30
0.0
 11
295.649163379975
 21
151.8232328357731
 31
0.0
  0
SOLID
  5
37C
330
378
100
AcDbEntity
  8
Bemaßungen_TC_020513_DIN_
 62
     7
100
AcDbTrace
 10
218.649163379975
 20
156.4814953237101
 30
0.0
 11
218.649163379975
 21
155.1649703478361
 31
0.0
 12
213.649163379975
 22
155.8232328357731
 32
0.0
 13
213.649163379975
 23
155.8232328357731
 33
0.0
  0
SOLID
  5
37D
330
378
100
AcDbEntity
  8
Bemaßungen_TC_020513_DIN_
 62
     7
100
AcDbTrace
 10
290.649163379975
 20
155.1649703478361
 30
0.0
 11
290.649163379975
 21
156.4814953237101
 31
0.0
 12
295.649163379975
 22
155.8232328357731
 32
0.0
 13
295.649163379975
 23
155.8232328357731
 33
0.0
  0
MTEXT
  5
37E
330
378
100
AcDbEntity
  8
Bemaßungen_TC_020513_DIN_
 62
     7
100
AcDbMText
 10
252.5248976948531
 20
161.1408889842195
 30
0.0
 40
7.0
 41
0.0
 71
     7
 72
     1
  1
82
  7
CONVERTER_15
 11
0.9999999999882478
 21
4.848136811095759E-6
 31
0.0
 73
     1
 44
0.60024009603842
  0
ENDBLK
  5
380
330
378
100
AcDbEntity
  8
0
100
AcDbBlockEnd
  0
BLOCK
  5
38A
330
383
100
AcDbEntity
  8
0
100
AcDbBlockBegin
  2
*D10
 70
     1
 10
0.0
 20
0.0
 30
0.0
  3
*D10
  1

  0
LINE
  5
384
330
383
100
AcDbEntity
  8
Bemaßungen_TC_020513_DIN_
  6
Continuous
 62
     7
100
AcDbLine
 10
320.8991633799747
 20
185.323222400171
 30
0.0
 11
320.8991633799747
 21
205.323222400171
 31
0.0
  0
LINE
  5
385
330
383
100
AcDbEntity
  8
Bemaßungen_TC_020513_DIN_
  6
Continuous
 62
     7
100
AcDbLine
 10
302.8991633799749
 20
185.323222400171
 30
0.0
 11
324.8991633799747
 21
185.323222400171
 31
0.0
  0
LINE
  5
386
330
383
100
AcDbEntity
  8
Bemaßungen_TC_020513_DIN_
  6
Continuous
 62
     7
100
AcDbLine
 10
302.8991633799749
 20
205.323222400171
 30
0.0
 11
324.8991633799747
 21
205.323222400171
 31
0.0
  0
SOLID
  5
387
330
383
100
AcDbEntity
  8
Bemaßungen_TC_020513_DIN_
 62
     7
100
AcDbTrace
 10
320.2409008920377
 20
190.323222400171
 30
0.0
 11
321.5574258679116
 21
190.323222400171
 31
0.0
 12
320.8991633799747
 22
185.323222400171
 32
0.0
 13
320.8991633799747
 23
185.323222400171
 33
0.0
  0
SOLID
  5
388
330
383
100
AcDbEntity
  8
Bemaßungen_TC_020513_DIN_
 62
     7
100
AcDbTrace
 10
321.5574258679116
 20
200.323222400171
 30
0.0
 11
320.2409008920377
 21
200.323222400171
 31
0.0
 12
320.8991633799747
 22
205.323222400171
 32
0.0
 13
320.8991633799747
 23
205.323222400171
 33
0.0
  0
MTEXT
  5
389
330
383
100
AcDbEntity
  8
Bemaßungen_TC_020513_DIN_
 62
     7
100
AcDbMText
 10
315.5814898105774
 20
189.8618217635183
 30
0.0
 40
7.0
 41
0.0
 71
     7
 72
     1
  1
M20
  7
CONVERTER_15
 11
0.0
 21
1.0
 31
0.0
 73
     1
 44
0.60024009603842
  0
ENDBLK
  5
38B
330
383
100
AcDbEntity
  8
0
100
AcDbBlockEnd
  0
BLOCK
  5
395
330
38E
100
AcDbEntity
  8
0
100
AcDbBlockBegin
  2
*D11
 70
     1
 10
0.0
 20
0.0
 30
0.0
  3
*D11
  1

  0
LINE
  5
38F
330
38E
100
AcDbEntity
  8
Bemaßungen_TC_020513_DIN_
  6
Continuous
 62
     7
100
AcDbLine
 10
188.3991633799748
 20
185.323222400171
 30
0.0
 11
188.3991633799748
 21
205.323222400171
 31
0.0
  0
LINE
  5
390
330
38E
100
AcDbEntity
  8
Bemaßungen_TC_020513_DIN_
  6
Continuous
 62
     7
100
AcDbLine
 10
206.399163379975
 20
185.323222400171
 30
0.0
 11
184.3991633799748
 21
185.323222400171
 31
0.0
  0
LINE
  5
391
330
38E
100
AcDbEntity
  8
Bemaßungen_TC_020513_DIN_
  6
Continuous
 62
     7
100
AcDbLine
 10
206.399163379975
 20
205.323222400171
 30
0.0
 11
184.3991633799748
 21
205.323222400171
 31
0.0
  0
SOLID
  5
392
330
38E
100
AcDbEntity
  8
Bemaßungen_TC_020513_DIN_
 62
     7
100
AcDbTrace
 10
187.7409008920378
 20
190.323222400171
 30
0.0
 11
189.0574258679118
 21
190.323222400171
 31
0.0
 12
188.3991633799748
 22
185.323222400171
 32
0.0
 13
188.3991633799748
 23
185.323222400171
 33
0.0
  0
SOLID
  5
393
330
38E
100
AcDbEntity
  8
Bemaßungen_TC_020513_DIN_
 62
     7
100
AcDbTrace
 10
189.0574258679118
 20
200.323222400171
 30
0.0
 11
187.7409008920378
 21
200.323222400171
 31
0.0
 12
188.3991633799748
 22
205.323222400171
 32
0.0
 13
188.3991633799748
 23
205.323222400171
 33
0.0
  0
MTEXT
  5
394
330
38E
100
AcDbEntity
  8
Bemaßungen_TC_020513_DIN_
 62
     7
100
AcDbMText
 10
183.0814898105775
 20
189.8618217635183
 30
0.0
 40
7.0
 41
0.0
 71
     7
 72
     1
  1
M20
  7
CONVERTER_15
 11
0.0
 21
1.0
 31
0.0
 73
     1
 44
0.60024009603842
  0
ENDBLK
  5
396
330
38E
100
AcDbEntity
  8
0
100
AcDbBlockEnd
  0
ENDSEC
  0
SECTION
  2
ENTITIES
  0
INSERT
  5
51
330
1F
100
AcDbEntity
  8
0
100
AcDbBlockReference
  2
Schriftfelder_Ilme
 10
174.039620099394
 20
-0.0012801852525
 30
0.0
 41
2.0
 42
2.0
 43
2.0
  0
INSERT
  5
52
330
1F
100
AcDbEntity
  8
0
100
AcDbBlockReference
  2
Ränder_Ilme_Rahmen_A4_quer
 10
0.0
 20
0.0
 30
0.0
 41
2.0
 42
2.0
 43
2.0
  0
POINT
  5
FE
330
1F
100
AcDbEntity
  8
Bemaßungen_TC_020513_DIN_
 62
     7
100
AcDbPoint
 10
482.194989730522
 20
246.573222400171
 30
0.0
  0
POINT
  5
FF
330
1F
100
AcDbEntity
  8
Bemaßungen_TC_020513_DIN_
 62
     7
100
AcDbPoint
 10
406.194989730516
 20
304.323222400171
 30
0.0
  0
POINT
  5
100
330
1F
100
AcDbEntity
  8
Bemaßungen_TC_020513_DIN_
 62
     7
100
AcDbPoint
 10
481.444989730512
 20
180.823222400171
 30
0.0
  0
POINT
  5
101
330
1F
100
AcDbEntity
  8
Bemaßungen_TC_020513_DIN_
 62
     7
100
AcDbPoint
 10
469.944989730516
 20
253.823222400171
 30
0.0
  0
POINT
  5
102
330
1F
100
AcDbEntity
  8
Bemaßungen_TC_020513_DIN_
 62
     7
100
AcDbPoint
 10
481.444989730512
 20
184.823222400171
 30
0.0
  0
POINT
  5
103
330
1F
100
AcDbEntity
  8
Bemaßungen_TC_020513_DIN_
 62
     7
100
AcDbPoint
 10
481.444989730512
 20
180.823222400171
 30
0.0
  0
POINT
  5
104
330
1F
100
AcDbEntity
  8
Bemaßungen_TC_020513_DIN_
 62
     7
100
AcDbPoint
 10
482.444989730512
 20
180.823222400171
 30
0.0
  0
POINT
  5
105
330
1F
100
AcDbEntity
  8
Bemaßungen_TC_020513_DIN_
 62
     7
100
AcDbPoint
 10
425.444989730512
 20
180.823222400171
 30
0.0
  0
POINT
  5
106
330
1F
100
AcDbEntity
  8
Bemaßungen_TC_020513_DIN_
 62
     7
100
AcDbPoint
 10
476.444989730514
 20
175.823222400171
 30
0.0
  0
POINT
  5
107
330
1F
100
AcDbEntity
  8
Bemaßungen_TC_020513_DIN_
 62
     7
100
AcDbPoint
 10
431.444989730514
 20
175.823222400171
 30
0.0
  0
POINT
  5
108
330
1F
100
AcDbEntity
  8
Bemaßungen_TC_020513_DIN_
 62
     7
100
AcDbPoint
 10
301.399163379975
 20
180.823222400171
 30
0.0
  0
POINT
  5
109
330
1F
100
AcDbEntity
  8
Bemaßungen_TC_020513_DIN_
 62
     7
100
AcDbPoint
 10
207.899163379975
 20
180.823222400171
 30
0.0
  0
POINT
  5
10A
330
1F
100
AcDbEntity
  8
Bemaßungen_TC_020513_DIN_
 62
     7
100
AcDbPoint
 10
213.649163379975
 20
175.823222400171
 30
0.0
  0
POINT
  5
10B
330
1F
100
AcDbEntity
  8
Bemaßungen_TC_020513_DIN_
 62
     7
100
AcDbPoint
 10
295.649163379975
 20
175.823222400171
 30
0.0
  0
POINT
  5
10C
330
1F
100
AcDbEntity
  8
Bemaßungen_TC_020513_DIN_
 62
     7
100
AcDbPoint
 10
300.899163379975
 20
185.323222400171
 30
0.0
  0
POINT
  5
10D
330
1F
100
AcDbEntity
  8
Bemaßungen_TC_020513_DIN_
 62
     7
100
AcDbPoint
 10
300.899163379975
 20
205.323222400171
 30
0.0
  0
POINT
  5
10E
330
1F
100
AcDbEntity
  8
Bemaßungen_TC_020513_DIN_
 62
     7
100
AcDbPoint
 10
208.399163379975
 20
185.323222400171
 30
0.0
  0
POINT
  5
10F
330
1F
100
AcDbEntity
  8
Bemaßungen_TC_020513_DIN_
 62
     7
100
AcDbPoint
 10
208.399163379975
 20
205.323222400171
 30
0.0
  0
POINT
  5
110
330
1F
100
AcDbEntity
  8
Bemaßungen_TC_020513_DIN_
 62
     7
100
AcDbPoint
 10
482.194989730522
 20
246.573222400171
 30
0.0
  0
POINT
  5
111
330
1F
100
AcDbEntity
  8
Bemaßungen_TC_020513_DIN_
 62
     7
100
AcDbPoint
 10
406.194989730516
 20
304.323222400171
 30
0.0
  0
POINT
  5
112
330
1F
100
AcDbEntity
  8
Bemaßungen_TC_020513_DIN_
 62
     7
100
AcDbPoint
 10
481.444989730512
 20
180.823222400171
 30
0.0
  0
POINT
  5
113
330
1F
100
AcDbEntity
  8
Bemaßungen_TC_020513_DIN_
 62
     7
100
AcDbPoint
 10
469.944989730516
 20
253.823222400171
 30
0.0
  0
POINT
  5
114
330
1F
100
AcDbEntity
  8
Bemaßungen_TC_020513_DIN_
 62
     7
100
AcDbPoint
 10
481.444989730512
 20
184.823222400171
 30
0.0
  0
POINT
  5
115
330
1F
100
AcDbEntity
  8
Bemaßungen_TC_020513_DIN_
 62
     7
100
AcDbPoint
 10
481.444989730512
 20
180.823222400171
 30
0.0
  0
POINT
  5
116
330
1F
100
AcDbEntity
  8
Bemaßungen_TC_020513_DIN_
 62
     7
100
AcDbPoint
 10
482.444989730512
 20
180.823222400171
 30
0.0
  0
POINT
  5
117
330
1F
100
AcDbEntity
  8
Bemaßungen_TC_020513_DIN_
 62
     7
100
AcDbPoint
 10
425.444989730512
 20
180.823222400171
 30
0.0
  0
POINT
  5
118
330
1F
100
AcDbEntity
  8
Bemaßungen_TC_020513_DIN_
 62
     7
100
AcDbPoint
 10
476.444989730514
 20
175.823222400171
 30
0.0
  0
POINT
  5
119
330
1F
100
AcDbEntity
  8
Bemaßungen_TC_020513_DIN_
 62
     7
100
AcDbPoint
 10
431.444989730514
 20
175.823222400171
 30
0.0
  0
POINT
  5
11A
330
1F
100
AcDbEntity
  8
Bemaßungen_TC_020513_DIN_
 62
     7
100
AcDbPoint
 10
301.399163379975
 20
180.823222400171
 30
0.0
  0
POINT
  5
11B
330
1F
100
AcDbEntity
  8
Bemaßungen_TC_020513_DIN_
 62
     7
100
AcDbPoint
 10
207.899163379975
 20
180.823222400171
 30
0.0
  0
POINT
  5
11C
330
1F
100
AcDbEntity
  8
Bemaßungen_TC_020513_DIN_
 62
     7
100
AcDbPoint
 10
213.649163379975
 20
175.823222400171
 30
0.0
  0
POINT
  5
11D
330
1F
100
AcDbEntity
  8
Bemaßungen_TC_020513_DIN_
 62
     7
100
AcDbPoint
 10
295.649163379975
 20
175.823222400171
 30
0.0
  0
POINT
  5
11E
330
1F
100
AcDbEntity
  8
Bemaßungen_TC_020513_DIN_
 62
     7
100
AcDbPoint
 10
300.899163379975
 20
185.323222400171
 30
0.0
  0
POINT
  5
11F
330
1F
100
AcDbEntity
  8
Bemaßungen_TC_020513_DIN_
 62
     7
100
AcDbPoint
 10
300.899163379975
 20
205.323222400171
 30
0.0
  0
POINT
  5
120
330
1F
100
AcDbEntity
  8
Bemaßungen_TC_020513_DIN_
 62
     7
100
AcDbPoint
 10
208.399163379975
 20
185.323222400171
 30
0.0
  0
POINT
  5
121
330
1F
100
AcDbEntity
  8
Bemaßungen_TC_020513_DIN_
 62
     7
100
AcDbPoint
 10
208.399163379975
 20
205.323222400171
 30
0.0
  0
LINE
  5
1F4
102
{ACAD_REACTORS
330
399
330
399
102
}
330
1F
100
AcDbEntity
  8
Symbole_TC_020513_DIN_
  6
Continuous
 62
     7
100
AcDbLine
 10
478.759653062029
 20
189.303807536597
 30
0.0
 11
477.521122055078
 21
189.750214253529
 31
0.0
  0
LINE
  5
1F5
102
{ACAD_REACTORS
330
399
330
399
102
}
330
1F
100
AcDbEntity
  8
Symbole_TC_020513_DIN_
  6
Continuous
 62
     7
100
AcDbLine
 10
477.521122055078
 20
189.750214253529
 30
0.0
 11
476.444989730514
 21
184.823222400171
 31
0.0
  0
LINE
  5
1F6
102
{ACAD_REACTORS
330
399
330
399
102
}
330
1F
100
AcDbEntity
  8
Symbole_TC_020513_DIN_
  6
Continuous
 62
     7
100
AcDbLine
 10
476.444989730514
 20
184.823222400171
 30
0.0
 11
478.759653062029
 21
189.303807536597
 31
0.0
  0
SPLINE
  5
229
330
1F
100
AcDbEntity
  8
Sichtbare_Kanten_TC_020513_DIN_
  6
Continuous
 62
     7
100
AcDbSpline
210
0.0
220
0.0
230
1.0
 70
     8
 71
     3
 72
    31
 73
    27
 74
    25
 42
0.0000000001
 43
0.0000000001
 44
0.00000001
 40
0.0
 40
0.0
 40
0.0
 40
0.0
 40
0.1219910706653624
 40
0.2439821410937753
 40
0.2744927928498253
 40
0.3049982776884971
 40
0.3355060166820345
 40
0.3660150104577213
 40
0.3964962447161414
 40
0.4269772475009675
 40
0.4574582426059272
 40
0.487939183488631
 40
0.5183893168391178
 40
0.5488395626253715
 40
0.5792897866858918
 40
0.6097398870054465
 40
0.640159060400862
 40
0.6705782787848718
 40
0.7009974709637214
 40
0.7314168909974882
 40
0.7618097924729706
 40
0.7922013982115069
 40
0.8225906778155468
 40
0.8529852577133943
 40
0.9743051842854724
 40
1.095625110605973
 40
1.095625110605973
 40
1.095625110605973
 40
1.095625110605973
 10
249.349163379975
 20
257.650439118884
 30
0.0
 10
249.3084538405837
 20
257.6484104265431
 30
0.0
 10
249.22703476188
 20
257.6443530418652
 30
0.0
 10
249.1381166972785
 20
257.6196202996488
 30
0.0
 10
249.081209012638
 20
257.5976870235702
 30
0.0
 10
249.0532482498796
 20
257.5854472227898
 30
0.0
 10
249.0258466317436
 20
257.5720176726924
 30
0.0
 10
248.9990610629747
 20
257.557411004351
 30
0.0
 10
248.972945276928
 20
257.5416562621298
 30
0.0
 10
248.9475468737741
 20
257.5247860436093
 30
0.0
 10
248.9229057234704
 20
257.5068280587875
 30
0.0
 10
248.8990777984063
 20
257.4878206075009
 30
0.0
 10
248.8761105946809
 20
257.4677972411388
 30
0.0
 10
248.8540449933371
 20
257.4467993715596
 30
0.0
 10
248.8329149483261
 20
257.4248603045995
 30
0.0
 10
248.8127691526607
 20
257.4020278319213
 30
0.0
 10
248.7936486288492
 20
257.3783434372652
 30
0.0
 10
248.7755863412355
 20
257.3538553154388
 30
0.0
 10
248.7586096899771
 20
257.3286022767349
 30
0.0
 10
248.7427579125387
 20
257.3026387370743
 30
0.0
 10
248.7280634936649
 20
257.2760130017817
 30
0.0
 10
248.7145549986168
 20
257.2487797243016
 30
0.0
 10
248.7022381047003
 20
257.2209795661283
 30
0.0
 10
248.6801850893575
 20
257.1644417275466
 30
0.0
 10
248.655293134127
 20
257.0760598795326
 30
0.0
 10
248.6512066313576
 20
256.9950864145689
 30
0.0
 10
248.649163379975
 20
256.954599682129
 30
0.0
 11
249.349163379975
 21
257.650439118884
 31
0.0
 11
249.2276308890395
 21
257.6398714810636
 31
0.0
 11
249.1097492796467
 21
257.6084748660992
 31
0.0
 11
249.0812906508931
 21
257.5974745788283
 31
0.0
 11
249.0533420355777
 21
257.5852492155537
 31
0.0
 11
249.0259484981333
 21
257.5718210271137
 31
0.0
 11
248.9991633799752
 21
257.5572143113137
 31
0.0
 11
248.9730634434049
 21
257.5414695041398
 31
0.0
 11
248.9476730669804
 21
257.5246047386273
 31
0.0
 11
248.92303990549
 21
257.5066520670274
 31
0.0
 11
248.8992120531944
 21
257.4876436159576
 31
0.0
 11
248.8762596027017
 21
257.4676337274661
 31
0.0
 11
248.854200913156
 21
257.4466424987271
 31
0.0
 11
248.8330778193057
 21
257.4247100786252
 31
0.0
 11
248.8129322697915
 21
257.401876650406
 31
0.0
 11
248.7938239317595
 21
257.3782081581068
 31
0.0
 11
248.7757672833074
 21
257.3537278334813
 31
0.0
 11
248.7587964480074
 21
257.3284826754895
 31
0.0
 11
248.742945597326
 21
257.302519400506
 31
0.0
 11
248.728260144334
 21
257.2759098922332
 31
0.0
 11
248.7147533017973
 21
257.2486846299929
 31
0.0
 11
248.7024513546494
 21
257.2208966755662
 31
0.0
 11
248.691378545425
 21
257.1925907860191
 31
0.0
 11
248.6598017452978
 21
257.075452277077
 31
0.0
 11
248.649163379975
 21
256.954599682129
 31
0.0
  0
SPLINE
  5
22A
330
1F
100
AcDbEntity
  8
Sichtbare_Kanten_TC_020513_DIN_
  6
Continuous
 62
     7
100
AcDbSpline
210
0.0
220
0.0
230
1.0
 70
     8
 71
     3
 72
    31
 73
    27
 74
    25
 42
0.0000000001
 43
0.0000000001
 44
0.00000001
 40
0.0
 40
0.0
 40
0.0
 40
0.0
 40
0.1213199263205997
 40
0.2426398528925668
 40
0.2730344327903833
 40
0.3034237123943307
 40
0.3338153181329306
 40
0.3642082196085538
 40
0.3946276396428972
 40
0.4250468318220149
 40
0.4554660502055357
 40
0.4858852236005158
 40
0.5163353239200704
 40
0.5467855479806939
 40
0.5772357937672219
 40
0.6076859271178366
 40
0.6381668680005892
 40
0.6686478631055154
 40
0.699128865890145
 40
0.7296101001483939
 40
0.760119093923922
 40
0.7906268329174854
 40
0.8211323177562287
 40
0.8516429695122583
 40
0.9736340399410557
 40
1.095625110605965
 40
1.095625110605965
 40
1.095625110605965
 40
1.095625110605965
 10
260.649163379975
 20
256.954599682129
 30
0.0
 10
260.6471201285922
 20
256.9950864145689
 30
0.0
 10
260.6430336258222
 20
257.0760598795325
 30
0.0
 10
260.6181416705921
 20
257.1644417275466
 30
0.0
 10
260.5960886552498
 20
257.2209795661284
 30
0.0
 10
260.5837717613331
 20
257.2487797243015
 30
0.0
 10
260.5702632662851
 20
257.2760130017817
 30
0.0
 10
260.5555688474112
 20
257.3026387370746
 30
0.0
 10
260.5397170699723
 20
257.3286022767353
 30
0.0
 10
260.522740418714
 20
257.3538553154394
 30
0.0
 10
260.5046781311003
 20
257.3783434372655
 30
0.0
 10
260.4855576072891
 20
257.4020278319215
 30
0.0
 10
260.4654118116238
 20
257.4248603045996
 30
0.0
 10
260.4442817666127
 20
257.4467993715598
 30
0.0
 10
260.4222161652692
 20
257.4677972411394
 30
0.0
 10
260.3992489615436
 20
257.4878206075017
 30
0.0
 10
260.3754210364797
 20
257.5068280587885
 30
0.0
 10
260.3507798861759
 20
257.5247860436101
 30
0.0
 10
260.325381483022
 20
257.5416562621302
 30
0.0
 10
260.2992656969753
 20
257.5574110043514
 30
0.0
 10
260.2724801282063
 20
257.5720176726924
 30
0.0
 10
260.2450785100704
 20
257.5854472227898
 30
0.0
 10
260.2171177473119
 20
257.5976870235703
 30
0.0
 10
260.1602100626714
 20
257.6196202996487
 30
0.0
 10
260.0712919980698
 20
257.6443530418653
 30
0.0
 10
259.9898729193662
 20
257.6484104265431
 30
0.0
 10
259.949163379975
 20
257.650439118884
 30
0.0
 11
260.649163379975
 21
256.954599682129
 31
0.0
 11
260.6385250146517
 21
257.0754522770771
 31
0.0
 11
260.6069482145249
 21
257.1925907860192
 31
0.0
 11
260.5958754053007
 21
257.2208966755662
 31
0.0
 11
260.5835734581527
 21
257.2486846299929
 31
0.0
 11
260.570066615616
 21
257.2759098922332
 31
0.0
 11
260.5553811626239
 21
257.3025194005061
 31
0.0
 11
260.539530311942
 21
257.32848267549
 31
0.0
 11
260.5225594766418
 21
257.353727833482
 31
0.0
 11
260.50450282819
 21
257.3782081581072
 31
0.0
 11
260.4853944901584
 21
257.4018766504061
 31
0.0
 11
260.4652489406442
 21
257.4247100786253
 31
0.0
 11
260.4441258467939
 21
257.4466424987273
 31
0.0
 11
260.4220671572483
 21
257.4676337274667
 31
0.0
 11
260.3991147067556
 21
257.4876436159585
 31
0.0
 11
260.37528685446
 21
257.5066520670284
 31
0.0
 11
260.3506536929696
 21
257.5246047386282
 31
0.0
 11
260.325263316545
 21
257.5414695041403
 31
0.0
 11
260.2991633799747
 21
257.5572143113139
 31
0.0
 11
260.2723782618168
 21
257.5718210271137
 31
0.0
 11
260.2449847243723
 21
257.5852492155536
 31
0.0
 11
260.2170361090569
 21
257.5974745788284
 31
0.0
 11
260.1885774803033
 21
257.6084748660992
 31
0.0
 11
260.07069587091
 21
257.6398714810636
 31
0.0
 11
259.949163379975
 21
257.650439118884
 31
0.0
  0
SPLINE
  5
22B
330
1F
100
AcDbEntity
  8
Sichtbare_Kanten_TC_020513_DIN_
  6
Continuous
 62
     7
100
AcDbSpline
210
0.0
220
0.0
230
1.0
 70
     8
 71
     3
 72
    31
 73
    27
 74
    25
 42
0.0000000001
 43
0.0000000001
 44
0.00000001
 40
0.0
 40
0.0
 40
0.0
 40
0.0
 40
0.1213199263205648
 40
0.2426398528926207
 40
0.2730344327904049
 40
0.3034237123944333
 40
0.3338153181330584
 40
0.3642082196086816
 40
0.3946276396430439
 40
0.4250468318221933
 40
0.4554660502057141
 40
0.4858852236007299
 40
0.516335323920124
 40
0.5467855479806247
 40
0.5772357937669176
 40
0.6076859271173082
 40
0.6381668679999898
 40
0.6686478631050623
 40
0.6991288658898807
 40
0.7296101001483939
 40
0.7601190939242123
 40
0.7906268329178998
 40
0.8211323177565749
 40
0.8516429695124574
 40
0.9736340399411635
 40
1.095625110606078
 40
1.095625110606078
 40
1.095625110606078
 40
1.095625110606078
 10
260.649163379975
 20
256.900166244703
 30
0.0
 10
260.6471201285923
 20
256.9406529771429
 30
0.0
 10
260.6430336258229
 20
257.0216264421066
 30
0.0
 10
260.6181416705923
 20
257.1100082901204
 30
0.0
 10
260.5960886552497
 20
257.1665461287023
 30
0.0
 10
260.5837717613332
 20
257.1943462868755
 30
0.0
 10
260.5702632662851
 20
257.2215795643557
 30
0.0
 10
260.5555688474112
 20
257.2482052996485
 30
0.0
 10
260.5397170699724
 20
257.2741688393094
 30
0.0
 10
260.5227404187139
 20
257.2994218780133
 30
0.0
 10
260.5046781311004
 20
257.3239099998397
 30
0.0
 10
260.4855576072891
 20
257.3475943944955
 30
0.0
 10
260.4654118116238
 20
257.3704268671736
 30
0.0
 10
260.4442817666128
 20
257.3923659341336
 30
0.0
 10
260.4222161652692
 20
257.4133638037129
 30
0.0
 10
260.3992489615437
 20
257.4333871700748
 30
0.0
 10
260.3754210364796
 20
257.4523946213615
 30
0.0
 10
260.350779886176
 20
257.4703526061834
 30
0.0
 10
260.3253814830219
 20
257.4872228247036
 30
0.0
 10
260.2992656969753
 20
257.5029775669253
 30
0.0
 10
260.2724801282063
 20
257.5175842352668
 30
0.0
 10
260.2450785100705
 20
257.5310137853646
 30
0.0
 10
260.2171177473119
 20
257.5432535861449
 30
0.0
 10
260.1602100626714
 20
257.5651868622232
 30
0.0
 10
260.0712919980697
 20
257.589919604439
 30
0.0
 10
259.9898729193662
 20
257.593976989117
 30
0.0
 10
259.949163379975
 20
257.596005681458
 30
0.0
 11
260.649163379975
 21
256.900166244703
 31
0.0
 11
260.6385250146521
 21
257.021018839651
 31
0.0
 11
260.6069482145249
 21
257.1381573485932
 31
0.0
 11
260.5958754053007
 21
257.1664632381401
 31
0.0
 11
260.5835734581528
 21
257.1942511925669
 31
0.0
 11
260.570066615616
 21
257.2214764548073
 31
0.0
 11
260.5553811626239
 21
257.2480859630801
 31
0.0
 11
260.5395303119421
 21
257.274049238064
 31
0.0
 11
260.5225594766418
 21
257.2992943960561
 31
0.0
 11
260.50450282819
 21
257.3237747206812
 31
0.0
 11
260.4853944901583
 21
257.3474432129801
 31
0.0
 11
260.4652489406442
 21
257.3702766411992
 31
0.0
 11
260.444125846794
 21
257.3922090613011
 31
0.0
 11
260.4220671572483
 21
257.4132002900402
 31
0.0
 11
260.3991147067557
 21
257.4332101785316
 31
0.0
 11
260.3752868544601
 21
257.4522186296014
 31
0.0
 11
260.3506536929696
 21
257.4701713012014
 31
0.0
 11
260.325263316545
 21
257.4870360667138
 31
0.0
 11
260.2991633799747
 21
257.5027808738879
 31
0.0
 11
260.2723782618166
 21
257.5173875896882
 31
0.0
 11
260.2449847243722
 21
257.5308157781284
 31
0.0
 11
260.2170361090568
 21
257.543041141403
 31
0.0
 11
260.1885774803033
 21
257.5540414286737
 31
0.0
 11
260.07069587091
 21
257.5854380436376
 31
0.0
 11
259.949163379975
 21
257.596005681458
 31
0.0
  0
SPLINE
  5
22C
330
1F
100
AcDbEntity
  8
Sichtbare_Kanten_TC_020513_DIN_
  6
Continuous
 62
     7
100
AcDbSpline
210
0.0
220
0.0
230
1.0
 70
     8
 71
     3
 72
    31
 73
    27
 74
    25
 42
0.0000000001
 43
0.0000000001
 44
0.00000001
 40
0.0
 40
0.0
 40
0.0
 40
0.0
 40
0.1219910706649709
 40
0.2439821410937408
 40
0.2744927928497028
 40
0.3049982776884723
 40
0.3355060166820602
 40
0.3660150104576677
 40
0.3964962447160927
 40
0.4269772475008718
 40
0.457458242605664
 40
0.4879391834881727
 40
0.5183893168387183
 40
0.5488395626253265
 40
0.5792897866859288
 40
0.6097398870054357
 40
0.6401590604006122
 40
0.67057827878428
 40
0.7009974709633502
 40
0.7314168909975011
 40
0.7618097924730418
 40
0.7922013982116416
 40
0.8225906778156296
 40
0.852985257713477
 40
0.9743051842854928
 40
1.095625110606109
 40
1.095625110606109
 40
1.095625110606109
 40
1.095625110606109
 10
249.349163379975
 20
257.596005681458
 30
0.0
 10
249.3084538405838
 20
257.593976989117
 30
0.0
 10
249.2270347618801
 20
257.5899196044391
 30
0.0
 10
249.1381166972787
 20
257.5651868622228
 30
0.0
 10
249.081209012638
 20
257.5432535861443
 30
0.0
 10
249.0532482498797
 20
257.5310137853638
 30
0.0
 10
249.0258466317437
 20
257.5175842352663
 30
0.0
 10
248.9990610629746
 20
257.5029775669252
 30
0.0
 10
248.9729452769281
 20
257.4872228247037
 30
0.0
 10
248.9475468737741
 20
257.4703526061835
 30
0.0
 10
248.9229057234704
 20
257.452394621362
 30
0.0
 10
248.8990777984063
 20
257.4333871700755
 30
0.0
 10
248.8761105946808
 20
257.4133638037134
 30
0.0
 10
248.8540449933373
 20
257.3923659341337
 30
0.0
 10
248.8329149483262
 20
257.3704268671735
 30
0.0
 10
248.8127691526607
 20
257.3475943944954
 30
0.0
 10
248.7936486288492
 20
257.3239099998397
 30
0.0
 10
248.7755863412354
 20
257.2994218780133
 30
0.0
 10
248.7586096899771
 20
257.2741688393094
 30
0.0
 10
248.7427579125387
 20
257.2482052996485
 30
0.0
 10
248.7280634936649
 20
257.2215795643556
 30
0.0
 10
248.7145549986169
 20
257.1943462868756
 30
0.0
 10
248.7022381047002
 20
257.1665461287023
 30
0.0
 10
248.6801850893576
 20
257.1100082901206
 30
0.0
 10
248.655293134127
 20
257.0216264421067
 30
0.0
 10
248.6512066313576
 20
256.9406529771429
 30
0.0
 10
248.649163379975
 20
256.900166244703
 30
0.0
 11
249.349163379975
 21
257.596005681458
 31
0.0
 11
249.2276308890399
 21
257.5854380436376
 31
0.0
 11
249.1097492796467
 21
257.5540414286731
 31
0.0
 11
249.0812906508931
 21
257.5430411414025
 31
0.0
 11
249.0533420355777
 21
257.5308157781277
 31
0.0
 11
249.0259484981333
 21
257.5173875896877
 31
0.0
 11
248.9991633799752
 21
257.5027808738877
 31
0.0
 11
248.973063443405
 21
257.4870360667138
 31
0.0
 11
248.9476730669804
 21
257.4701713012015
 31
0.0
 11
248.92303990549
 21
257.4522186296019
 31
0.0
 11
248.8992120531944
 21
257.4332101785322
 31
0.0
 11
248.8762596027017
 21
257.4132002900407
 31
0.0
 11
248.854200913156
 21
257.3922090613012
 31
0.0
 11
248.8330778193057
 21
257.3702766411992
 31
0.0
 11
248.8129322697914
 21
257.3474432129801
 31
0.0
 11
248.7938239317595
 21
257.3237747206812
 31
0.0
 11
248.7757672833075
 21
257.299294396056
 31
0.0
 11
248.7587964480074
 21
257.274049238064
 31
0.0
 11
248.7429455973259
 21
257.2480859630801
 31
0.0
 11
248.728260144334
 21
257.2214764548073
 31
0.0
 11
248.7147533017973
 21
257.1942511925669
 31
0.0
 11
248.7024513546494
 21
257.1664632381402
 31
0.0
 11
248.691378545425
 21
257.1381573485932
 31
0.0
 11
248.6598017452978
 21
257.0210188396511
 31
0.0
 11
248.649163379975
 21
256.900166244703
 31
0.0
  0
SPLINE
  5
22D
330
1F
100
AcDbEntity
  8
Sichtbare_Kanten_TC_020513_DIN_
  6
Continuous
 62
     7
100
AcDbSpline
210
0.0
220
0.0
230
1.0
 70
     8
 71
     3
 72
    31
 73
    27
 74
    25
 42
0.0000000001
 43
0.0000000001
 44
0.00000001
 40
0.0
 40
0.0
 40
0.0
 40
0.0
 40
0.1755718895061377
 40
0.3511437785884338
 40
0.3950458466903094
 40
0.4389405077188893
 40
0.4828383977643692
 40
0.5267380851028728
 40
0.5705879263441789
 40
0.6144374339836551
 40
0.6582869245372969
 40
0.702136335472566
 40
0.7459301297188796
 40
0.7897240835670023
 40
0.8335179982031713
 40
0.877311732832768
 40
0.921049653566862
 40
0.9647876372520582
 40
1.008525576863893
 40
1.052263843547321
 40
1.095953984347039
 40
1.139642253927255
 40
1.183327164566224
 40
1.227019723030519
 40
1.401380196442003
 40
1.575740669396398
 40
1.575740669396398
 40
1.575740669396398
 40
1.575740669396398
 10
263.649163379975
 20
257.565218830872
 30
0.0
 10
263.646248355666
 20
257.6238085698855
 30
0.0
 10
263.6404183070551
 20
257.740988047771
 30
0.0
 10
263.604876604235
 20
257.8689691797509
 30
0.0
 10
263.5733539529427
 20
257.9508821659922
 30
0.0
 10
263.5557646813922
 20
257.9911250602408
 30
0.0
 10
263.5364646550089
 20
258.0305652017347
 30
0.0
 10
263.5154732965268
 20
258.0691177752425
 30
0.0
 10
263.4928324659204
 20
258.1067056693353
 30
0.0
 10
263.4685890641748
 20
258.143260553194
 30
0.0
 10
263.4427808532619
 20
258.1787277586945
 30
0.0
 10
263.4154648935423
 20
258.213023631002
 30
0.0
 10
263.386689547455
 20
258.2460799898587
 30
0.0
 10
263.3565144433496
 20
258.2778381490907
 30
0.0
 10
263.3249846789619
 20
258.3082518300438
 30
0.0
 10
263.2921715099283
 20
258.3372481612255
 30
0.0
 10
263.2581347102944
 20
258.3647682170505
 30
0.0
 10
263.2229437214551
 20
258.3907646946795
 30
0.0
 10
263.1866512208035
 20
258.415200207705
 30
0.0
 10
263.1493381318056
 20
258.4380161870403
 30
0.0
 10
263.1110740580999
 20
258.4591659353885
 30
0.0
 10
263.07193777185
 20
258.4786084575243
 30
0.0
 10
263.0319847692775
 20
258.4963368823867
 30
0.0
 10
262.9507393559744
 20
258.5280756628805
 30
0.0
 10
262.8237260965471
 20
258.5639047457123
 30
0.0
 10
262.7073509521148
 20
258.5697873527933
 30
0.0
 10
262.649163379975
 20
258.57272865633
 30
0.0
 11
263.649163379975
 21
257.565218830872
 31
0.0
 11
263.633977844855
 21
257.7401327751643
 31
0.0
 11
263.5888560007612
 21
257.909807485777
 31
0.0
 11
263.5730485619365
 21
257.9507649815674
 31
0.0
 11
263.5554799622265
 21
257.9909904159472
 31
0.0
 11
263.5361818413477
 21
258.0304189244277
 31
0.0
 11
263.5151887837596
 21
258.0689737436014
 31
0.0
 11
263.492563871575
 21
258.1065359842897
 31
0.0
 11
263.4683282460047
 21
258.1430792979523
 31
0.0
 11
263.4425276168638
 21
258.1785349795527
 31
0.0
 11
263.4152078230945
 21
258.2128336633142
 31
0.0
 11
263.3864542653697
 21
258.2458659101748
 31
0.0
 11
263.3562886548026
 21
258.2776140807168
 31
0.0
 11
263.3247684008952
 21
258.308017708013
 31
0.0
 11
263.2919509896616
 21
258.337016134052
 31
0.0
 11
263.2579399508367
 21
258.364516224019
 31
0.0
 11
263.2227601400382
 21
258.3905045315635
 31
0.0
 11
263.1864789460194
 21
258.4149316132979
 31
0.0
 11
263.1491633799747
 21
258.4377479342816
 31
0.0
 11
263.1109255369054
 21
258.4588831125517
 31
0.0
 11
263.0718007655213
 21
258.4783232041938
 31
0.0
 11
263.0318653244393
 21
258.4960300379909
 31
0.0
 11
262.9911835233007
 21
258.5119683792246
 31
0.0
 11
262.8228501108253
 21
258.5574154575978
 31
0.0
 11
262.649163379975
 21
258.57272865633
 31
0.0
  0
SPLINE
  5
22E
330
1F
100
AcDbEntity
  8
Sichtbare_Kanten_TC_020513_DIN_
  6
Continuous
 62
     7
100
AcDbSpline
210
0.0
220
0.0
230
1.0
 70
     8
 71
     3
 72
    31
 73
    27
 74
    25
 42
0.0000000001
 43
0.0000000001
 44
0.00000001
 40
0.0
 40
0.0
 40
0.0
 40
0.0
 40
0.1743604729543637
 40
0.3487209463659076
 40
0.3924135048302045
 40
0.4360984154693058
 40
0.4797866850498525
 40
0.5234768258497178
 40
0.567215092532844
 40
0.6109530321442694
 40
0.6546910158293404
 40
0.6984289365633545
 40
0.7422226711929675
 40
0.7860165858291146
 40
0.8298105396770652
 40
0.8736043339233601
 40
0.9174537448587178
 40
0.9613032354125769
 40
1.005152743052085
 40
1.049002584293371
 40
1.09290227163182
 40
1.136800161677249
 40
1.18069482270572
 40
1.224596890807524
 40
1.400168779889952
 40
1.575740669396198
 40
1.575740669396198
 40
1.575740669396198
 40
1.575740669396198
 10
246.649163379975
 20
258.57272865633
 30
0.0
 10
246.5909758078352
 20
258.5697873527934
 30
0.0
 10
246.4746006634029
 20
258.5639047457123
 30
0.0
 10
246.3475874039758
 20
258.5280756628795
 30
0.0
 10
246.2663419906723
 20
258.4963368823865
 30
0.0
 10
246.2263889880997
 20
258.4786084575241
 30
0.0
 10
246.1872527018496
 20
258.4591659353884
 30
0.0
 10
246.1489886281437
 20
258.4380161870403
 30
0.0
 10
246.111675539146
 20
258.415200207705
 30
0.0
 10
246.0753830384948
 20
258.3907646946795
 30
0.0
 10
246.0401920496557
 20
258.3647682170506
 30
0.0
 10
246.0061552500219
 20
258.3372481612258
 30
0.0
 10
245.9733420809883
 20
258.308251830044
 30
0.0
 10
245.9418123166005
 20
258.2778381490908
 30
0.0
 10
245.9116372124955
 20
258.2460799898585
 30
0.0
 10
245.8828618664083
 20
258.2130236310019
 30
0.0
 10
245.8555459066886
 20
258.1787277586945
 30
0.0
 10
245.8297376957753
 20
258.1432605531939
 30
0.0
 10
245.8054942940297
 20
258.1067056693352
 30
0.0
 10
245.7828534634231
 20
258.0691177752426
 30
0.0
 10
245.7618621049412
 20
258.0305652017346
 30
0.0
 10
245.7425620785579
 20
257.9911250602408
 30
0.0
 10
245.7249728070075
 20
257.9508821659923
 30
0.0
 10
245.6934501557157
 20
257.8689691797509
 30
0.0
 10
245.6579084528945
 20
257.7409880477712
 30
0.0
 10
245.6520784042838
 20
257.6238085698856
 30
0.0
 10
245.649163379975
 20
257.565218830872
 30
0.0
 11
246.649163379975
 21
258.57272865633
 31
0.0
 11
246.4754766491247
 21
258.5574154575975
 31
0.0
 11
246.3071432366493
 21
258.5119683792241
 31
0.0
 11
246.2664614355107
 21
258.4960300379907
 31
0.0
 11
246.2265259944285
 21
258.4783232041937
 31
0.0
 11
246.187401223044
 21
258.4588831125516
 31
0.0
 11
246.1491633799745
 21
258.4377479342814
 31
0.0
 11
246.1118478139301
 21
258.4149316132979
 31
0.0
 11
246.0755666199117
 21
258.3905045315635
 31
0.0
 11
246.0403868091133
 21
258.3645162240191
 31
0.0
 11
246.0063757702885
 21
258.3370161340522
 31
0.0
 11
245.973558359055
 21
258.3080177080132
 31
0.0
 11
245.9420381051476
 21
258.2776140807168
 31
0.0
 11
245.9118724945809
 21
258.2458659101747
 31
0.0
 11
245.8831189368561
 21
258.2128336633141
 31
0.0
 11
245.8557991430867
 21
258.1785349795526
 31
0.0
 11
245.8299985139454
 21
258.1430792979522
 31
0.0
 11
245.8057628883751
 21
258.1065359842897
 31
0.0
 11
245.7831379761904
 21
258.0689737436014
 31
0.0
 11
245.7621449186024
 21
258.0304189244277
 31
0.0
 11
245.7428467977236
 21
257.9909904159473
 31
0.0
 11
245.7252781980137
 21
257.9507649815675
 31
0.0
 11
245.7094707591892
 21
257.9098074857771
 31
0.0
 11
245.6643489150949
 21
257.7401327751644
 31
0.0
 11
245.649163379975
 21
257.565218830872
 31
0.0
  0
LWPOLYLINE
  5
22F
330
1F
100
AcDbEntity
  8
Mittellinie_TC_020513_DIN_
  6
CHAIN
 62
     7
100
AcDbPolyline
 90
        2
 70
     0
 43
0.25
 10
472.194989730522
 20
244.323222400171
 10
486.944989730522
 20
244.323222400171
  0
LWPOLYLINE
  5
230
330
1F
100
AcDbEntity
  8
Mittellinie_TC_020513_DIN_
  6
CHAIN
 62
     7
100
AcDbPolyline
 90
        2
 70
     0
 43
0.25
 10
420.944989730522
 20
244.323222400171
 10
435.694989730522
 20
244.323222400171
  0
LWPOLYLINE
  5
231
330
1F
100
AcDbEntity
  8
Mittelpunktmarkierung_TC_020513_DIN_
  6
CHAIN
 62
     7
100
AcDbPolyline
 90
        2
 70
     0
 43
0.25
 10
241.899163379975
 20
253.323222400171
 10
241.899163379975
 20
235.323222400171
  0
LWPOLYLINE
  5
232
330
1F
100
AcDbEntity
  8
Mittelpunktmarkierung_TC_020513_DIN_
  6
CHAIN
 62
     7
100
AcDbPolyline
 90
        2
 70
     0
 43
0.25
 10
250.899163379975
 20
244.323222400171
 10
232.899163379975
 20
244.323222400171
  0
LWPOLYLINE
  5
233
330
1F
100
AcDbEntity
  8
Mittelpunktmarkierung_TC_020513_DIN_
  6
CHAIN
 62
     7
100
AcDbPolyline
 90
        2
 70
     0
 43
0.25
 10
267.399163379975
 20
253.323222400171
 10
267.399163379975
 20
235.323222400171
  0
LWPOLYLINE
  5
234
330
1F
100
AcDbEntity
  8
Mittelpunktmarkierung_TC_020513_DIN_
  6
CHAIN
 62
     7
100
AcDbPolyline
 90
        2
 70
     0
 43
0.25
 10
276.399163379975
 20
244.323222400171
 10
258.399163379975
 20
244.323222400171
  0
LWPOLYLINE
  5
235
330
1F
100
AcDbEntity
  8
Mittelpunktmarkierung_TC_020513_DIN_
  6
CHAIN
 62
     7
100
AcDbPolyline
 90
        2
 70
     0
 43
0.25
 10
453.944989730512
 20
210.323222400171
 10
453.944989730512
 20
180.323222400171
  0
LWPOLYLINE
  5
236
330
1F
100
AcDbEntity
  8
Mittelpunktmarkierung_TC_020513_DIN_
  6
CHAIN
 62
     7
100
AcDbPolyline
 90
        2
 70
     0
 43
0.25
 10
468.944989730512
 20
195.323222400171
 10
438.944989730512
 20
195.323222400171
  0
LWPOLYLINE
  5
237
330
1F
100
AcDbEntity
  8
Mittellinie_TC_020513_DIN_
  6
CHAIN
 62
     7
100
AcDbPolyline
 90
        2
 70
     0
 43
0.25
 10
476.444989730514
 20
175.823222400171
 10
476.444989730514
 20
189.823222400171
  0
LWPOLYLINE
  5
238
330
1F
100
AcDbEntity
  8
Mittellinie_TC_020513_DIN_
  6
CHAIN
 62
     7
100
AcDbPolyline
 90
        2
 70
     0
 43
0.25
 10
431.444989730514
 20
175.823222400171
 10
431.444989730514
 20
189.823222400171
  0
LWPOLYLINE
  5
239
330
1F
100
AcDbEntity
  8
Mittellinie_TC_020513_DIN_
  6
CHAIN
 62
     7
100
AcDbPolyline
 90
        2
 70
     0
 43
0.25
 10
254.649163379975
 20
253.323222400171
 10
254.649163379975
 20
179.823222400171
  0
LWPOLYLINE
  5
23A
330
1F
100
AcDbEntity
  8
Mittellinie_TC_020513_DIN_
  6
CHAIN
 62
     7
100
AcDbPolyline
 90
        2
 70
     0
 43
0.25
 10
295.649163379975
 20
175.823222400171
 10
295.649163379975
 20
189.823222400171
  0
LWPOLYLINE
  5
23B
330
1F
100
AcDbEntity
  8
Mittellinie_TC_020513_DIN_
  6
CHAIN
 62
     7
100
AcDbPolyline
 90
        2
 70
     0
 43
0.25
 10
213.649163379975
 20
175.823222400171
 10
213.649163379975
 20
189.823222400171
  0
LWPOLYLINE
  5
23C
330
1F
100
AcDbEntity
  8
Sichtbare_Kanten_TC_020513_DIN_
  6
Continuous
 62
     7
100
AcDbPolyline
 90
        2
 70
     0
 43
0.5
 10
414.694989730522
 20
257.323222400171
 10
414.694989730522
 20
227.823222400171
  0
LWPOLYLINE
  5
23D
330
1F
100
AcDbEntity
  8
Sichtbare_Kanten_TC_020513_DIN_
  6
Continuous
 62
     7
100
AcDbPolyline
 90
        2
 70
     0
 43
0.5
 10
415.694989730522
 20
226.823222400171
 10
430.194989730522
 20
226.823222400171
  0
LWPOLYLINE
  5
23E
330
1F
100
AcDbEntity
  8
Sichtbare_Kanten_TC_020513_DIN_
  6
Continuous
 62
     7
100
AcDbPolyline
 90
        2
 70
     0
 43
0.5
 10
430.194989730522
 20
227.323222400171
 10
430.194989730522
 20
226.823222400171
  0
LWPOLYLINE
  5
23F
330
1F
100
AcDbEntity
  8
Sichtbare_Kanten_TC_020513_DIN_
  6
Continuous
 62
     7
100
AcDbPolyline
 90
        2
 70
     0
 43
0.5
 10
423.644989730522
 20
258.323222400171
 10
415.694989730522
 20
258.323222400171
  0
LWPOLYLINE
  5
240
330
1F
100
AcDbEntity
  8
Sichtbare_Kanten_TC_020513_DIN_
  6
Continuous
 62
     7
100
AcDbPolyline
 90
        2
 70
     0
 43
0.5
 10
423.644989730522
 20
258.323222400171
 10
423.74022782576
 20
257.823222400171
  0
LWPOLYLINE
  5
241
330
1F
100
AcDbEntity
  8
Sichtbare_Kanten_TC_020513_DIN_
  6
Continuous
 62
     7
100
AcDbPolyline
 90
        2
 70
     0
 43
0.5
 10
423.74022782576
 20
257.823222400171
 10
425.644989730525
 20
247.823222400171
  0
LWPOLYLINE
  5
242
330
1F
100
AcDbEntity
  8
Sichtbare_Kanten_TC_020513_DIN_
  6
Continuous
 62
     7
100
AcDbPolyline
 90
        2
 70
     0
 43
0.5
 10
430.194989730522
 20
228.823222400171
 10
430.194989730522
 20
227.323222400171
  0
LWPOLYLINE
  5
243
330
1F
100
AcDbEntity
  8
Sichtbare_Kanten_TC_020513_DIN_
  6
Continuous
 62
     7
100
AcDbPolyline
 90
        2
 70
     0
 43
0.5
 10
425.644989730522
 20
228.823222400171
 10
425.644989730525
 20
247.823222400171
  0
LWPOLYLINE
  5
244
330
1F
100
AcDbEntity
  8
Sichtbare_Kanten_TC_020513_DIN_
  6
Continuous
 62
     7
100
AcDbPolyline
 90
        2
 70
     0
 43
0.5
 10
425.644989730525
 20
247.823222400171
 10
431.694989730525
 20
247.823222400171
  0
LWPOLYLINE
  5
245
330
1F
100
AcDbEntity
  8
Sichtbare_Kanten_TC_020513_DIN_
  6
Continuous
 62
     7
100
AcDbPolyline
 90
        2
 70
     0
 43
0.5
 10
425.644989730522
 20
228.823222400171
 10
430.194989730522
 20
228.823222400171
  0
LWPOLYLINE
  5
246
330
1F
100
AcDbEntity
  8
Sichtbare_Kanten_TC_020513_DIN_
  6
Continuous
 62
     7
100
AcDbPolyline
 90
        2
 70
     0
 43
0.5
 10
432.194989730523
 20
231.823222400171
 10
425.644989730523
 20
231.823222400171
  0
LWPOLYLINE
  5
247
330
1F
100
AcDbEntity
  8
Sichtbare_Kanten_TC_020513_DIN_
  6
Continuous
 62
     7
100
AcDbPolyline
 90
        2
 70
     0
 43
0.5
 10
432.194989730522
 20
228.823222400171
 10
430.194989730522
 20
228.823222400171
  0
LWPOLYLINE
  5
248
330
1F
100
AcDbEntity
  8
Sichtbare_Kanten_TC_020513_DIN_
  6
Continuous
 62
     7
100
AcDbPolyline
 90
        2
 70
     0
 43
0.5
 10
475.944989730517
 20
248.323222400171
 10
475.944989730517
 20
253.823222400171
  0
LWPOLYLINE
  5
249
330
1F
100
AcDbEntity
  8
Sichtbare_Kanten_TC_020513_DIN_
  6
Continuous
 62
     7
100
AcDbPolyline
 90
        2
 70
     0
 43
0.5
 10
469.944989730516
 20
248.323222400171
 10
475.944989730517
 20
248.323222400171
  0
LWPOLYLINE
  5
24A
330
1F
100
AcDbEntity
  8
Sichtbare_Kanten_TC_020513_DIN_
  6
Continuous
 62
     7
100
AcDbPolyline
 90
        2
 70
     0
 43
0.5
 10
469.944989730516
 20
248.323222400171
 10
437.944989730516
 20
248.323222400171
  0
LWPOLYLINE
  5
24B
330
1F
100
AcDbEntity
  8
Sichtbare_Kanten_TC_020513_DIN_
  6
Continuous
 62
     7
100
AcDbPolyline
 90
        2
 70
     0
 43
0.5
 10
431.944989730517
 20
248.323222400171
 10
437.944989730516
 20
248.323222400171
  0
LWPOLYLINE
  5
24C
330
1F
100
AcDbEntity
  8
Sichtbare_Kanten_TC_020513_DIN_
  6
Continuous
 62
     7
100
AcDbPolyline
 90
        2
 70
     0
 43
0.5
 10
431.944989730517
 20
248.323222400171
 10
431.944989730517
 20
253.823222400171
  0
LWPOLYLINE
  5
24D
330
1F
100
AcDbEntity
  8
Sichtbare_Kanten_TC_020513_DIN_
  6
Continuous
 62
     7
100
AcDbPolyline
 90
        2
 70
     0
 43
0.5
 10
469.944989730516
 20
253.823222400171
 10
475.944989730517
 20
253.823222400171
  0
LWPOLYLINE
  5
24E
330
1F
100
AcDbEntity
  8
Sichtbare_Kanten_TC_020513_DIN_
  6
Continuous
 62
     7
100
AcDbPolyline
 90
        2
 70
     0
 43
0.5
 10
469.944989730516
 20
253.823222400171
 10
437.944989730516
 20
253.823222400171
  0
LWPOLYLINE
  5
24F
330
1F
100
AcDbEntity
  8
Sichtbare_Kanten_TC_020513_DIN_
  6
Continuous
 62
     7
100
AcDbPolyline
 90
        2
 70
     0
 43
0.5
 10
431.944989730517
 20
253.823222400171
 10
437.944989730516
 20
253.823222400171
  0
LWPOLYLINE
  5
250
330
1F
100
AcDbEntity
  8
Sichtbare_Kanten_TC_020513_DIN_
  6
Continuous
 62
     7
100
AcDbPolyline
 90
        2
 70
     0
 43
0.5
 10
418.694989730517
 20
266.823222400171
 10
418.694989730516
 20
272.823222400171
  0
LWPOLYLINE
  5
251
330
1F
100
AcDbEntity
  8
Sichtbare_Kanten_TC_020513_DIN_
  6
Continuous
 62
     7
100
AcDbPolyline
 90
        2
 70
     0
 43
0.5
 10
418.694989730516
 20
304.323222400171
 10
418.694989730516
 20
272.823222400171
  0
LWPOLYLINE
  5
252
330
1F
100
AcDbEntity
  8
Sichtbare_Kanten_TC_020513_DIN_
  6
Continuous
 62
     7
100
AcDbPolyline
 90
        2
 70
     0
 43
0.5
 10
418.694989730516
 20
304.323222400171
 10
418.694989730523
 20
310.323222400171
  0
LWPOLYLINE
  5
253
330
1F
100
AcDbEntity
  8
Sichtbare_Kanten_TC_020513_DIN_
  6
Continuous
 62
     7
100
AcDbPolyline
 90
        2
 70
     0
 43
0.5
 10
418.694989730517
 20
266.823222400171
 10
408.194989730517
 20
266.823222400171
  0
LWPOLYLINE
  5
254
330
1F
100
AcDbEntity
  8
Sichtbare_Kanten_TC_020513_DIN_
  6
Continuous
 62
     7
100
AcDbPolyline
 90
        2
 70
     0
 43
0.5
 10
418.694989730523
 20
310.323222400171
 10
408.194989730517
 20
310.323222400171
  0
LWPOLYLINE
  5
255
330
1F
100
AcDbEntity
  8
Sichtbare_Kanten_TC_020513_DIN_
  6
Continuous
 62
     7
100
AcDbPolyline
 90
        2
 70
     0
 43
0.5
 10
416.694989730523
 20
313.323222400171
 10
416.694989730523
 20
310.323222400171
  0
LWPOLYLINE
  5
256
330
1F
100
AcDbEntity
  8
Sichtbare_Kanten_TC_020513_DIN_
  6
Continuous
 62
     7
100
AcDbPolyline
 90
        2
 70
     0
 43
0.5
 10
416.694989730523
 20
313.323222400171
 10
418.694989730523
 20
313.323222400171
  0
LWPOLYLINE
  5
257
330
1F
100
AcDbEntity
  8
Sichtbare_Kanten_TC_020513_DIN_
  6
Continuous
 62
     7
100
AcDbPolyline
 90
        2
 70
     0
 43
0.5
 10
418.694989730523
 20
310.323222400171
 10
418.694989730523
 20
313.323222400171
  0
LWPOLYLINE
  5
258
330
1F
100
AcDbEntity
  8
Sichtbare_Kanten_TC_020513_DIN_
  6
Continuous
 62
     7
100
AcDbPolyline
 90
        2
 70
     0
 43
0.5
 10
406.194989730516
 20
304.323222400171
 10
406.194989730516
 20
272.823222400171
  0
LWPOLYLINE
  5
259
330
1F
100
AcDbEntity
  8
Sichtbare_Kanten_TC_020513_DIN_
  6
Continuous
 62
     7
100
AcDbPolyline
 90
        2
 70
     0
 43
0.5
 10
406.194989730516
 20
304.323222400171
 10
406.194989730517
 20
308.323222400171
  0
LWPOLYLINE
  5
25A
330
1F
100
AcDbEntity
  8
Sichtbare_Kanten_TC_020513_DIN_
  6
Continuous
 62
     7
100
AcDbPolyline
 90
        2
 70
     0
 43
0.5
 10
406.194989730517
 20
268.823222400171
 10
406.194989730516
 20
272.823222400171
  0
LWPOLYLINE
  5
25B
330
1F
100
AcDbEntity
  8
Sichtbare_Kanten_TC_020513_DIN_
  6
Continuous
 62
     7
100
AcDbPolyline
 90
        2
 70
     0
 43
0.5
 10
412.669065676252
 20
249.323222400171
 10
414.694989730524
 20
249.323222400171
  0
LWPOLYLINE
  5
25C
330
1F
100
AcDbEntity
  8
Sichtbare_Kanten_TC_020513_DIN_
  6
Continuous
 62
     7
100
AcDbPolyline
 90
        2
 70
     0
 43
0.5
 10
420.227055116631
 20
258.323222400171
 10
418.194989730524
 20
258.57272865633
  0
LWPOLYLINE
  5
25D
330
1F
100
AcDbEntity
  8
Sichtbare_Kanten_TC_020513_DIN_
  6
Continuous
 62
     7
100
AcDbPolyline
 90
        2
 70
     0
 43
0.5
 10
411.220176936819
 20
250.434993832517
 10
406.672837879062
 20
267.405894235307
  0
LWPOLYLINE
  5
25E
330
1F
100
AcDbEntity
  8
Sichtbare_Kanten_TC_020513_DIN_
  6
Continuous
 62
     7
100
AcDbPolyline
 90
        2
 70
     0
 43
0.5
 10
418.194989730523
 20
265.823222400171
 10
418.194989730523
 20
258.323222400171
  0
LWPOLYLINE
  5
25F
330
1F
100
AcDbEntity
  8
Sichtbare_Kanten_TC_020513_DIN_
  6
Continuous
 62
     7
100
AcDbPolyline
 90
        2
 70
     0
 43
0.5
 10
418.194989730523
 20
265.823222400171
 10
418.194989730523
 20
266.823222400171
  0
LWPOLYLINE
  5
260
330
1F
100
AcDbEntity
  8
Sichtbare_Kanten_TC_020513_DIN_
  6
Continuous
 62
     7
100
AcDbPolyline
 90
        2
 70
     0
 43
0.5
 10
417.694989730514
 20
284.831565013397
 10
417.694989730514
 20
292.314879786945
  0
LWPOLYLINE
  5
261
330
1F
100
AcDbEntity
  8
Sichtbare_Kanten_TC_020513_DIN_
  6
Continuous
 62
     7
100
AcDbPolyline
 90
        2
 70
     0
 43
0.5
 10
425.694989730522
 20
242.073222400171
 10
425.944989730522
 20
241.823222400171
  0
LWPOLYLINE
  5
262
330
1F
100
AcDbEntity
  8
Sichtbare_Kanten_TC_020513_DIN_
  6
Continuous
 62
     7
100
AcDbPolyline
 90
        2
 70
     0
 43
0.5
 10
425.694989730522
 20
246.573222400171
 10
425.944989730522
 20
246.823222400171
  0
LWPOLYLINE
  5
263
330
1F
100
AcDbEntity
  8
Sichtbare_Kanten_TC_020513_DIN_
  6
Continuous
 62
     7
100
AcDbPolyline
 90
        2
 70
     0
 43
0.5
 10
425.944989730522
 20
241.823222400171
 10
430.694989730522
 20
241.823222400171
  0
LWPOLYLINE
  5
264
330
1F
100
AcDbEntity
  8
Sichtbare_Kanten_TC_020513_DIN_
  6
Continuous
 62
     7
100
AcDbPolyline
 90
        2
 70
     0
 43
0.5
 10
425.944989730522
 20
246.823222400171
 10
430.694989730522
 20
246.823222400171
  0
LWPOLYLINE
  5
265
330
1F
100
AcDbEntity
  8
Sichtbare_Kanten_TC_020513_DIN_
  6
Continuous
 62
     7
100
AcDbPolyline
 90
        2
 70
     0
 43
0.5
 10
430.694989730522
 20
241.823222400171
 10
432.194989730522
 20
240.323222400171
  0
LWPOLYLINE
  5
266
330
1F
100
AcDbEntity
  8
Sichtbare_Kanten_TC_020513_DIN_
  6
Continuous
 62
     7
100
AcDbPolyline
 90
        2
 70
     0
 43
0.5
 10
430.694989730522
 20
246.823222400171
 10
432.194989730517
 20
248.323222400171
  0
LWPOLYLINE
  5
267
330
1F
100
AcDbEntity
  8
Sichtbare_Kanten_TC_020513_DIN_
  6
Continuous
 62
     7
100
AcDbPolyline
 90
        2
 70
     0
 43
0.5
 10
482.194989730522
 20
246.573222400171
 10
481.944989730522
 20
246.823222400171
  0
LWPOLYLINE
  5
268
330
1F
100
AcDbEntity
  8
Sichtbare_Kanten_TC_020513_DIN_
  6
Continuous
 62
     7
100
AcDbPolyline
 90
        2
 70
     0
 43
0.5
 10
482.194989730522
 20
242.073222400171
 10
481.944989730522
 20
241.823222400171
  0
LWPOLYLINE
  5
269
330
1F
100
AcDbEntity
  8
Sichtbare_Kanten_TC_020513_DIN_
  6
Continuous
 62
     7
100
AcDbPolyline
 90
        2
 70
     0
 43
0.5
 10
477.194989730522
 20
241.823222400171
 10
481.944989730522
 20
241.823222400171
  0
LWPOLYLINE
  5
26A
330
1F
100
AcDbEntity
  8
Sichtbare_Kanten_TC_020513_DIN_
  6
Continuous
 62
     7
100
AcDbPolyline
 90
        2
 70
     0
 43
0.5
 10
477.194989730522
 20
246.823222400171
 10
481.944989730522
 20
246.823222400171
  0
LWPOLYLINE
  5
26B
330
1F
100
AcDbEntity
  8
Sichtbare_Kanten_TC_020513_DIN_
  6
Continuous
 62
     7
100
AcDbPolyline
 90
        2
 70
     0
 43
0.5
 10
477.194989730522
 20
246.823222400171
 10
475.694989730517
 20
248.323222400171
  0
LWPOLYLINE
  5
26C
330
1F
100
AcDbEntity
  8
Sichtbare_Kanten_TC_020513_DIN_
  6
Continuous
 62
     7
100
AcDbPolyline
 90
        2
 70
     0
 43
0.5
 10
477.194989730522
 20
241.823222400171
 10
475.694989730522
 20
240.323222400171
  0
LWPOLYLINE
  5
26D
330
1F
100
AcDbEntity
  8
Sichtbare_Kanten_TC_020513_DIN_
  6
Continuous
 62
     7
100
AcDbPolyline
 90
        2
 70
     0
 43
0.5
 10
425.694989730522
 20
242.073222400171
 10
425.694989730522
 20
246.573222400171
  0
LWPOLYLINE
  5
26E
330
1F
100
AcDbEntity
  8
Sichtbare_Kanten_TC_020513_DIN_
  6
Continuous
 62
     7
100
AcDbPolyline
 90
        2
 70
     0
 43
0.5
 10
425.944989730522
 20
241.823222400171
 10
425.944989730522
 20
246.823222400171
  0
LWPOLYLINE
  5
26F
330
1F
100
AcDbEntity
  8
Sichtbare_Kanten_TC_020513_DIN_
  6
Continuous
 62
     7
100
AcDbPolyline
 90
        2
 70
     0
 43
0.5
 10
430.694989730522
 20
241.823222400171
 10
430.694989730522
 20
246.823222400171
  0
LWPOLYLINE
  5
270
330
1F
100
AcDbEntity
  8
Sichtbare_Kanten_TC_020513_DIN_
  6
Continuous
 62
     7
100
AcDbPolyline
 90
        2
 70
     0
 43
0.5
 10
482.194989730522
 20
242.073222400171
 10
482.194989730522
 20
246.573222400171
  0
LWPOLYLINE
  5
271
330
1F
100
AcDbEntity
  8
Sichtbare_Kanten_TC_020513_DIN_
  6
Continuous
 62
     7
100
AcDbPolyline
 90
        2
 70
     0
 43
0.5
 10
481.944989730522
 20
241.823222400171
 10
481.944989730522
 20
246.823222400171
  0
LWPOLYLINE
  5
272
330
1F
100
AcDbEntity
  8
Sichtbare_Kanten_TC_020513_DIN_
  6
Continuous
 62
     7
100
AcDbPolyline
 90
        2
 70
     0
 43
0.5
 10
477.194989730522
 20
241.823222400171
 10
477.194989730522
 20
246.823222400171
  0
LWPOLYLINE
  5
273
330
1F
100
AcDbEntity
  8
Sichtbare_Kanten_TC_020513_DIN_
  6
Continuous
 62
     7
100
AcDbPolyline
 90
        2
 70
     0
 43
0.5
 10
426.444989730512
 20
184.823222400171
 10
448.67123395308
 20
184.823222400171
  0
LWPOLYLINE
  5
274
330
1F
100
AcDbEntity
  8
Sichtbare_Kanten_TC_020513_DIN_
  6
Continuous
 62
     7
100
AcDbPolyline
 90
        2
 70
     0
 43
0.5
 10
481.444989730512
 20
184.823222400171
 10
459.218745507945
 20
184.823222400171
  0
LWPOLYLINE
  5
275
330
1F
100
AcDbEntity
  8
Sichtbare_Kanten_TC_020513_DIN_
  6
Continuous
 62
     7
100
AcDbPolyline
 90
        2
 70
     0
 43
0.5
 10
426.444989730512
 20
180.823222400171
 10
481.444989730512
 20
180.823222400171
  0
LWPOLYLINE
  5
276
330
1F
100
AcDbEntity
  8
Sichtbare_Kanten_TC_020513_DIN_
  6
Continuous
 62
     7
100
AcDbPolyline
 90
        2
 70
     0
 43
0.5
 10
475.694989730517
 20
248.323222400171
 10
475.694989730517
 20
184.823222400171
  0
LWPOLYLINE
  5
277
330
1F
100
AcDbEntity
  8
Sichtbare_Kanten_TC_020513_DIN_
  6
Continuous
 62
     7
100
AcDbPolyline
 90
        2
 70
     0
 43
0.5
 10
432.194989730517
 20
248.323222400171
 10
432.194989730517
 20
184.823222400171
  0
LWPOLYLINE
  5
278
330
1F
100
AcDbEntity
  8
Sichtbare_Kanten_TC_020513_DIN_
  6
Continuous
 62
     7
100
AcDbPolyline
 90
        2
 70
     0
 43
0.5
 10
425.444989730512
 20
184.823222400171
 10
425.444989730512
 20
180.823222400171
  0
LWPOLYLINE
  5
279
330
1F
100
AcDbEntity
  8
Sichtbare_Kanten_TC_020513_DIN_
  6
Continuous
 62
     7
100
AcDbPolyline
 90
        2
 70
     0
 43
0.5
 10
425.444989730512
 20
184.823222400171
 10
426.444989730512
 20
184.823222400171
  0
LWPOLYLINE
  5
27A
330
1F
100
AcDbEntity
  8
Sichtbare_Kanten_TC_020513_DIN_
  6
Continuous
 62
     7
100
AcDbPolyline
 90
        2
 70
     0
 43
0.5
 10
426.444989730512
 20
180.823222400171
 10
425.444989730512
 20
180.823222400171
  0
LWPOLYLINE
  5
27B
330
1F
100
AcDbEntity
  8
Sichtbare_Kanten_TC_020513_DIN_
  6
Continuous
 62
     7
100
AcDbPolyline
 90
        2
 70
     0
 43
0.5
 10
482.444989730512
 20
180.823222400171
 10
482.444989730512
 20
184.823222400171
  0
LWPOLYLINE
  5
27C
330
1F
100
AcDbEntity
  8
Sichtbare_Kanten_TC_020513_DIN_
  6
Continuous
 62
     7
100
AcDbPolyline
 90
        2
 70
     0
 43
0.5
 10
482.444989730512
 20
180.823222400171
 10
481.444989730512
 20
180.823222400171
  0
LWPOLYLINE
  5
27D
330
1F
100
AcDbEntity
  8
Sichtbare_Kanten_TC_020513_DIN_
  6
Continuous
 62
     7
100
AcDbPolyline
 90
        2
 70
     0
 43
0.5
 10
481.444989730512
 20
184.823222400171
 10
482.444989730512
 20
184.823222400171
  0
LWPOLYLINE
  5
27E
330
1F
100
AcDbEntity
  8
Sichtbare_Kanten_TC_020513_DIN_
  6
Continuous
 62
     7
100
AcDbPolyline
 90
        2
 70
     0
 43
0.5
 10
260.649163379975
 20
256.900166244703
 10
260.649163379975
 20
256.954599682129
  0
LWPOLYLINE
  5
27F
330
1F
100
AcDbEntity
  8
Sichtbare_Kanten_TC_020513_DIN_
  6
Continuous
 62
     7
100
AcDbPolyline
 90
        2
 70
     0
 43
0.5
 10
248.649163379975
 20
256.954599682129
 10
248.649163379975
 20
256.900166244703
  0
LWPOLYLINE
  5
280
330
1F
100
AcDbEntity
  8
Sichtbare_Kanten_TC_020513_DIN_
  6
Continuous
 62
     7
100
AcDbPolyline
 90
        2
 70
     0
 43
0.5
 10
249.349163379975
 20
257.650439118884
 10
259.949163379975
 20
257.650439118884
  0
LWPOLYLINE
  5
281
330
1F
100
AcDbEntity
  8
Sichtbare_Kanten_TC_020513_DIN_
  6
Continuous
 62
     7
100
AcDbPolyline
 90
        2
 70
     0
 43
0.5
 10
249.349163379975
 20
257.596005681458
 10
259.949163379975
 20
257.596005681458
  0
LWPOLYLINE
  5
282
330
1F
100
AcDbEntity
  8
Sichtbare_Kanten_TC_020513_DIN_
  6
Continuous
 62
     7
100
AcDbPolyline
 90
        2
 70
     0
 43
0.5
 10
260.649163379975
 20
253.823222400171
 10
260.649163379975
 20
256.900166244703
  0
LWPOLYLINE
  5
283
330
1F
100
AcDbEntity
  8
Sichtbare_Kanten_TC_020513_DIN_
  6
Continuous
 62
     7
100
AcDbPolyline
 90
        2
 70
     0
 43
0.5
 10
248.649163379975
 20
256.900166244703
 10
248.649163379975
 20
253.823222400171
  0
LWPOLYLINE
  5
284
330
1F
100
AcDbEntity
  8
Sichtbare_Kanten_TC_020513_DIN_
  6
Continuous
 62
     7
100
AcDbPolyline
 90
        2
 70
     0
 43
0.5
 10
263.799163379975
 20
258.323222400171
 10
263.799163379975
 20
257.823222400171
  0
LWPOLYLINE
  5
285
330
1F
100
AcDbEntity
  8
Sichtbare_Kanten_TC_020513_DIN_
  6
Continuous
 62
     7
100
AcDbPolyline
 90
        2
 70
     0
 43
0.5
 10
245.499163379975
 20
257.823222400171
 10
245.499163379975
 20
258.323222400171
  0
LWPOLYLINE
  5
286
330
1F
100
AcDbEntity
  8
Sichtbare_Kanten_TC_020513_DIN_
  6
Continuous
 62
     7
100
AcDbPolyline
 90
        2
 70
     0
 43
0.5
 10
241.399163379975
 20
255.323222400171
 10
245.499163379975
 20
255.323222400171
  0
LWPOLYLINE
  5
287
330
1F
100
AcDbEntity
  8
Sichtbare_Kanten_TC_020513_DIN_
  6
Continuous
 62
     7
100
AcDbPolyline
 90
        2
 70
     0
 43
0.5
 10
263.799163379975
 20
255.323222400171
 10
267.899163379975
 20
255.323222400171
  0
LWPOLYLINE
  5
288
330
1F
100
AcDbEntity
  8
Sichtbare_Kanten_TC_020513_DIN_
  6
Continuous
 62
     7
100
AcDbPolyline
 90
        2
 70
     0
 43
0.5
 10
267.899163379975
 20
257.823222400171
 10
267.899163379975
 20
253.823222400171
  0
LWPOLYLINE
  5
289
330
1F
100
AcDbEntity
  8
Sichtbare_Kanten_TC_020513_DIN_
  6
Continuous
 62
     7
100
AcDbPolyline
 90
        2
 70
     0
 43
0.5
 10
263.799163379975
 20
257.823222400171
 10
267.899163379975
 20
257.823222400171
  0
LWPOLYLINE
  5
28A
330
1F
100
AcDbEntity
  8
Sichtbare_Kanten_TC_020513_DIN_
  6
Continuous
 62
     7
100
AcDbPolyline
 90
        2
 70
     0
 43
0.5
 10
245.499163379975
 20
255.323222400171
 10
245.499163379975
 20
255.916741610292
  0
LWPOLYLINE
  5
28B
330
1F
100
AcDbEntity
  8
Sichtbare_Kanten_TC_020513_DIN_
  6
Continuous
 62
     7
100
AcDbPolyline
 90
        2
 70
     0
 43
0.5
 10
245.499163379975
 20
257.823222400171
 10
245.499163379975
 20
255.916741610292
  0
LWPOLYLINE
  5
28C
330
1F
100
AcDbEntity
  8
Sichtbare_Kanten_TC_020513_DIN_
  6
Continuous
 62
     7
100
AcDbPolyline
 90
        2
 70
     0
 43
0.5
 10
263.799163379975
 20
255.916741610292
 10
263.799163379975
 20
257.823222400171
  0
LWPOLYLINE
  5
28D
330
1F
100
AcDbEntity
  8
Sichtbare_Kanten_TC_020513_DIN_
  6
Continuous
 62
     7
100
AcDbPolyline
 90
        2
 70
     0
 43
0.5
 10
263.799163379975
 20
255.916741610292
 10
263.799163379975
 20
255.323222400171
  0
LWPOLYLINE
  5
28E
330
1F
100
AcDbEntity
  8
Sichtbare_Kanten_TC_020513_DIN_
  6
Continuous
 62
     7
100
AcDbPolyline
 90
        2
 70
     0
 43
0.5
 10
241.399163379975
 20
253.823222400171
 10
241.399163379975
 20
257.823222400171
  0
LWPOLYLINE
  5
28F
330
1F
100
AcDbEntity
  8
Sichtbare_Kanten_TC_020513_DIN_
  6
Continuous
 62
     7
100
AcDbPolyline
 90
        2
 70
     0
 43
0.5
 10
241.399163379975
 20
257.823222400171
 10
245.499163379975
 20
257.823222400171
  0
LWPOLYLINE
  5
290
330
1F
100
AcDbEntity
  8
Sichtbare_Kanten_TC_020513_DIN_
  6
Continuous
 62
     7
100
AcDbPolyline
 90
        2
 70
     0
 43
0.5
 10
290.149163379975
 20
248.323222400171
 10
290.149163379975
 20
253.823222400171
  0
LWPOLYLINE
  5
291
330
1F
100
AcDbEntity
  8
Sichtbare_Kanten_TC_020513_DIN_
  6
Continuous
 62
     7
100
AcDbPolyline
 90
        2
 70
     0
 43
0.5
 10
284.149163379975
 20
248.323222400171
 10
290.149163379975
 20
248.323222400171
  0
LWPOLYLINE
  5
292
330
1F
100
AcDbEntity
  8
Sichtbare_Kanten_TC_020513_DIN_
  6
Continuous
 62
     7
100
AcDbPolyline
 90
        2
 70
     0
 43
0.5
 10
284.149163379975
 20
248.323222400171
 10
225.149163379975
 20
248.323222400171
  0
LWPOLYLINE
  5
293
330
1F
100
AcDbEntity
  8
Sichtbare_Kanten_TC_020513_DIN_
  6
Continuous
 62
     7
100
AcDbPolyline
 90
        2
 70
     0
 43
0.5
 10
219.149163379975
 20
248.323222400171
 10
225.149163379975
 20
248.323222400171
  0
LWPOLYLINE
  5
294
330
1F
100
AcDbEntity
  8
Sichtbare_Kanten_TC_020513_DIN_
  6
Continuous
 62
     7
100
AcDbPolyline
 90
        2
 70
     0
 43
0.5
 10
219.149163379975
 20
248.323222400171
 10
219.149163379975
 20
253.823222400171
  0
LWPOLYLINE
  5
295
330
1F
100
AcDbEntity
  8
Sichtbare_Kanten_TC_020513_DIN_
  6
Continuous
 62
     7
100
AcDbPolyline
 90
        2
 70
     0
 43
0.5
 10
284.149163379975
 20
253.823222400171
 10
290.149163379975
 20
253.823222400171
  0
LWPOLYLINE
  5
296
330
1F
100
AcDbEntity
  8
Sichtbare_Kanten_TC_020513_DIN_
  6
Continuous
 62
     7
100
AcDbPolyline
 90
        2
 70
     0
 43
0.5
 10
284.149163379975
 20
253.823222400171
 10
225.149163379975
 20
253.823222400171
  0
LWPOLYLINE
  5
297
330
1F
100
AcDbEntity
  8
Sichtbare_Kanten_TC_020513_DIN_
  6
Continuous
 62
     7
100
AcDbPolyline
 90
        2
 70
     0
 43
0.5
 10
219.149163379975
 20
253.823222400171
 10
225.149163379975
 20
253.823222400171
  0
LWPOLYLINE
  5
298
330
1F
100
AcDbEntity
  8
Sichtbare_Kanten_TC_020513_DIN_
  6
Continuous
 62
     7
100
AcDbPolyline
 90
        2
 70
     0
 43
0.5
 10
245.499163379975
 20
255.323222400171
 10
245.649163379975
 20
255.323222400171
  0
LWPOLYLINE
  5
299
330
1F
100
AcDbEntity
  8
Sichtbare_Kanten_TC_020513_DIN_
  6
Continuous
 62
     7
100
AcDbPolyline
 90
        2
 70
     0
 43
0.5
 10
263.649163379975
 20
255.323222400171
 10
263.799163379975
 20
255.323222400171
  0
LWPOLYLINE
  5
29A
330
1F
100
AcDbEntity
  8
Sichtbare_Kanten_TC_020513_DIN_
  6
Continuous
 62
     7
100
AcDbPolyline
 90
        2
 70
     0
 43
0.5
 10
241.649163379975
 20
253.823222400171
 10
241.649163379975
 20
255.323222400171
  0
LWPOLYLINE
  5
29B
330
1F
100
AcDbEntity
  8
Sichtbare_Kanten_TC_020513_DIN_
  6
Continuous
 62
     7
100
AcDbPolyline
 90
        2
 70
     0
 43
0.5
 10
267.649163379975
 20
255.323222400171
 10
267.649163379975
 20
253.823222400171
  0
LWPOLYLINE
  5
29C
330
1F
100
AcDbEntity
  8
Sichtbare_Kanten_TC_020513_DIN_
  6
Continuous
 62
     7
100
AcDbPolyline
 90
        2
 70
     0
 43
0.5
 10
264.149163379975
 20
313.323222400171
 10
264.149163379975
 20
310.323222400171
  0
LWPOLYLINE
  5
29D
330
1F
100
AcDbEntity
  8
Sichtbare_Kanten_TC_020513_DIN_
  6
Continuous
 62
     7
100
AcDbPolyline
 90
        2
 70
     0
 43
0.5
 10
245.149163379975
 20
313.323222400171
 10
264.149163379975
 20
313.323222400171
  0
LWPOLYLINE
  5
29E
330
1F
100
AcDbEntity
  8
Sichtbare_Kanten_TC_020513_DIN_
  6
Continuous
 62
     7
100
AcDbPolyline
 90
        2
 70
     0
 43
0.5
 10
245.149163379975
 20
310.323222400171
 10
245.149163379975
 20
313.323222400171
  0
LWPOLYLINE
  5
29F
330
1F
100
AcDbEntity
  8
Sichtbare_Kanten_TC_020513_DIN_
  6
Continuous
 62
     7
100
AcDbPolyline
 90
        2
 70
     0
 43
0.5
 10
219.399163379975
 20
304.323222400171
 10
219.399163379975
 20
272.823222400171
  0
LWPOLYLINE
  5
2A0
330
1F
100
AcDbEntity
  8
Sichtbare_Kanten_TC_020513_DIN_
  6
Continuous
 62
     7
100
AcDbPolyline
 90
        2
 70
     0
 43
0.5
 10
225.399163379975
 20
307.823222400171
 10
283.899163379975
 20
307.823222400171
  0
LWPOLYLINE
  5
2A1
330
1F
100
AcDbEntity
  8
Sichtbare_Kanten_TC_020513_DIN_
  6
Continuous
 62
     7
100
AcDbPolyline
 90
        2
 70
     0
 43
0.5
 10
287.399163379975
 20
304.323222400171
 10
287.399163379975
 20
272.823222400171
  0
LWPOLYLINE
  5
2A2
330
1F
100
AcDbEntity
  8
Sichtbare_Kanten_TC_020513_DIN_
  6
Continuous
 62
     7
100
AcDbPolyline
 90
        2
 70
     0
 43
0.5
 10
225.399163379975
 20
266.823222400171
 10
283.899163379975
 20
266.823222400171
  0
LWPOLYLINE
  5
2A3
330
1F
100
AcDbEntity
  8
Sichtbare_Kanten_TC_020513_DIN_
  6
Continuous
 62
     7
100
AcDbPolyline
 90
        2
 70
     0
 43
0.5
 10
221.899163379975
 20
272.823222400171
 10
221.899163379975
 20
304.323222400171
  0
LWPOLYLINE
  5
2A4
330
1F
100
AcDbEntity
  8
Sichtbare_Kanten_TC_020513_DIN_
  6
Continuous
 62
     7
100
AcDbPolyline
 90
        2
 70
     0
 43
0.5
 10
283.899163379975
 20
269.323222400171
 10
225.399163379975
 20
269.323222400171
  0
LWPOLYLINE
  5
2A5
330
1F
100
AcDbEntity
  8
Sichtbare_Kanten_TC_020513_DIN_
  6
Continuous
 62
     7
100
AcDbPolyline
 90
        2
 70
     0
 43
0.5
 10
283.899163379975
 20
310.323222400171
 10
264.149163379975
 20
310.323222400171
  0
LWPOLYLINE
  5
2A6
330
1F
100
AcDbEntity
  8
Sichtbare_Kanten_TC_020513_DIN_
  6
Continuous
 62
     7
100
AcDbPolyline
 90
        2
 70
     0
 43
0.5
 10
245.149163379975
 20
310.323222400171
 10
225.399163379975
 20
310.323222400171
  0
LWPOLYLINE
  5
2A7
330
1F
100
AcDbEntity
  8
Sichtbare_Kanten_TC_020513_DIN_
  6
Continuous
 62
     7
100
AcDbPolyline
 90
        2
 70
     0
 43
0.5
 10
289.899163379975
 20
272.823222400171
 10
289.899163379975
 20
304.323222400171
  0
LWPOLYLINE
  5
2A8
330
1F
100
AcDbEntity
  8
Sichtbare_Kanten_TC_020513_DIN_
  6
Continuous
 62
     7
100
AcDbPolyline
 90
        2
 70
     0
 43
0.5
 10
262.649163379975
 20
258.57272865633
 10
246.649163379975
 20
258.57272865633
  0
LWPOLYLINE
  5
2A9
330
1F
100
AcDbEntity
  8
Sichtbare_Kanten_TC_020513_DIN_
  6
Continuous
 62
     7
100
AcDbPolyline
 90
        2
 70
     0
 43
0.5
 10
263.649163379975
 20
257.565218830872
 10
263.649163379975
 20
265.823222400171
  0
LWPOLYLINE
  5
2AA
330
1F
100
AcDbEntity
  8
Sichtbare_Kanten_TC_020513_DIN_
  6
Continuous
 62
     7
100
AcDbPolyline
 90
        2
 70
     0
 43
0.5
 10
245.649163379975
 20
265.823222400171
 10
245.649163379975
 20
257.565218830872
  0
LWPOLYLINE
  5
2AB
330
1F
100
AcDbEntity
  8
Sichtbare_Kanten_TC_020513_DIN_
  6
Continuous
 62
     7
100
AcDbPolyline
 90
        2
 70
     0
 43
0.5
 10
263.649163379975
 20
253.823222400171
 10
263.649163379975
 20
257.184586692073
  0
LWPOLYLINE
  5
2AC
330
1F
100
AcDbEntity
  8
Sichtbare_Kanten_TC_020513_DIN_
  6
Continuous
 62
     7
100
AcDbPolyline
 90
        2
 70
     0
 43
0.5
 10
263.649163379975
 20
257.184586692073
 10
263.649163379975
 20
257.565218830872
  0
LWPOLYLINE
  5
2AD
330
1F
100
AcDbEntity
  8
Sichtbare_Kanten_TC_020513_DIN_
  6
Continuous
 62
     7
100
AcDbPolyline
 90
        2
 70
     0
 43
0.5
 10
245.649163379975
 20
257.565218830872
 10
245.649163379975
 20
257.184586692073
  0
LWPOLYLINE
  5
2AE
330
1F
100
AcDbEntity
  8
Sichtbare_Kanten_TC_020513_DIN_
  6
Continuous
 62
     7
100
AcDbPolyline
 90
        2
 70
     0
 43
0.5
 10
245.649163379975
 20
257.184586692073
 10
245.649163379975
 20
253.823222400171
  0
LWPOLYLINE
  5
2AF
330
1F
100
AcDbEntity
  8
Sichtbare_Kanten_TC_020513_DIN_
  6
Continuous
 62
     7
100
AcDbPolyline
 90
        2
 70
     0
 43
0.5
 10
289.899163379975
 20
284.073222400171
 10
296.149163379975
 20
284.073222400171
  0
LWPOLYLINE
  5
2B0
330
1F
100
AcDbEntity
  8
Sichtbare_Kanten_TC_020513_DIN_
  6
Continuous
 62
     7
100
AcDbPolyline
 90
        2
 70
     0
 43
0.5
 10
289.899163379975
 20
293.073222400171
 10
296.149163379975
 20
293.073222400171
  0
LWPOLYLINE
  5
2B1
330
1F
100
AcDbEntity
  8
Sichtbare_Kanten_TC_020513_DIN_
  6
Continuous
 62
     7
100
AcDbPolyline
 90
        2
 70
     0
 43
0.5
 10
296.149163379975
 20
284.831565013397
 10
296.149163379975
 20
292.314879786945
  0
LWPOLYLINE
  5
2B2
330
1F
100
AcDbEntity
  8
Sichtbare_Kanten_TC_020513_DIN_
  6
Continuous
 62
     7
100
AcDbPolyline
 90
        2
 70
     0
 43
0.5
 10
289.899163379975
 20
284.831565013397
 10
296.149163379975
 20
284.831565013397
  0
LWPOLYLINE
  5
2B3
330
1F
100
AcDbEntity
  8
Sichtbare_Kanten_TC_020513_DIN_
  6
Continuous
 62
     7
100
AcDbPolyline
 90
        2
 70
     0
 43
0.5
 10
296.149163379975
 20
284.831565013397
 10
296.149163379975
 20
284.073222400171
  0
LWPOLYLINE
  5
2B4
330
1F
100
AcDbEntity
  8
Sichtbare_Kanten_TC_020513_DIN_
  6
Continuous
 62
     7
100
AcDbPolyline
 90
        2
 70
     0
 43
0.5
 10
296.149163379975
 20
293.073222400171
 10
296.149163379975
 20
292.314879786945
  0
LWPOLYLINE
  5
2B5
330
1F
100
AcDbEntity
  8
Sichtbare_Kanten_TC_020513_DIN_
  6
Continuous
 62
     7
100
AcDbPolyline
 90
        2
 70
     0
 43
0.5
 10
289.899163379975
 20
292.314879786945
 10
296.149163379975
 20
292.314879786945
  0
LWPOLYLINE
  5
2B6
330
1F
100
AcDbEntity
  8
Sichtbare_Kanten_TC_020513_DIN_
  6
Continuous
 62
     7
100
AcDbPolyline
 90
        2
 70
     0
 43
0.5
 10
213.149163379975
 20
284.073222400171
 10
219.399163379975
 20
284.073222400171
  0
LWPOLYLINE
  5
2B7
330
1F
100
AcDbEntity
  8
Sichtbare_Kanten_TC_020513_DIN_
  6
Continuous
 62
     7
100
AcDbPolyline
 90
        2
 70
     0
 43
0.5
 10
213.149163379975
 20
293.073222400171
 10
219.399163379975
 20
293.073222400171
  0
LWPOLYLINE
  5
2B8
330
1F
100
AcDbEntity
  8
Sichtbare_Kanten_TC_020513_DIN_
  6
Continuous
 62
     7
100
AcDbPolyline
 90
        2
 70
     0
 43
0.5
 10
213.149163379975
 20
284.831565013397
 10
213.149163379975
 20
292.314879786945
  0
LWPOLYLINE
  5
2B9
330
1F
100
AcDbEntity
  8
Sichtbare_Kanten_TC_020513_DIN_
  6
Continuous
 62
     7
100
AcDbPolyline
 90
        2
 70
     0
 43
0.5
 10
219.399163379975
 20
292.314879786945
 10
213.149163379975
 20
292.314879786945
  0
LWPOLYLINE
  5
2BA
330
1F
100
AcDbEntity
  8
Sichtbare_Kanten_TC_020513_DIN_
  6
Continuous
 62
     7
100
AcDbPolyline
 90
        2
 70
     0
 43
0.5
 10
213.149163379975
 20
284.831565013397
 10
213.149163379975
 20
284.073222400171
  0
LWPOLYLINE
  5
2BB
330
1F
100
AcDbEntity
  8
Sichtbare_Kanten_TC_020513_DIN_
  6
Continuous
 62
     7
100
AcDbPolyline
 90
        2
 70
     0
 43
0.5
 10
213.149163379975
 20
293.073222400171
 10
213.149163379975
 20
292.314879786945
  0
LWPOLYLINE
  5
2BC
330
1F
100
AcDbEntity
  8
Sichtbare_Kanten_TC_020513_DIN_
  6
Continuous
 62
     7
100
AcDbPolyline
 90
        2
 70
     0
 43
0.5
 10
219.399163379975
 20
284.831565013397
 10
213.149163379975
 20
284.831565013397
  0
LWPOLYLINE
  5
2BD
330
1F
100
AcDbEntity
  8
Sichtbare_Kanten_TC_020513_DIN_
  6
Continuous
 62
     7
100
AcDbPolyline
 90
        2
 70
     0
 43
0.5
 10
289.899163379975
 20
248.323222400171
 10
289.899163379975
 20
184.823222400171
  0
LWPOLYLINE
  5
2BE
330
1F
100
AcDbEntity
  8
Sichtbare_Kanten_TC_020513_DIN_
  6
Continuous
 62
     7
100
AcDbPolyline
 90
        2
 70
     0
 43
0.5
 10
219.399163379975
 20
248.323222400171
 10
219.399163379975
 20
184.823222400171
  0
LWPOLYLINE
  5
2BF
330
1F
100
AcDbEntity
  8
Sichtbare_Kanten_TC_020513_DIN_
  6
Continuous
 62
     7
100
AcDbPolyline
 90
        2
 70
     0
 43
0.5
 10
278.439871236454
 20
181.323222400171
 10
230.858455523496
 20
181.323222400171
  0
LWPOLYLINE
  5
2C0
330
1F
100
AcDbEntity
  8
Sichtbare_Kanten_TC_020513_DIN_
  6
Continuous
 62
     7
100
AcDbPolyline
 90
        2
 70
     0
 43
0.5
 10
255.774163379975
 20
233.36240489227
 10
255.774163379975
 20
239.126802213857
  0
LWPOLYLINE
  5
2C1
330
1F
100
AcDbEntity
  8
Sichtbare_Kanten_TC_020513_DIN_
  6
Continuous
 62
     7
100
AcDbPolyline
 90
        2
 70
     0
 43
0.5
 10
256.524163379975
 20
240.284039908073
 10
256.524163379975
 20
233.36240489227
  0
LWPOLYLINE
  5
2C2
330
1F
100
AcDbEntity
  8
Sichtbare_Kanten_TC_020513_DIN_
  6
Continuous
 62
     7
100
AcDbPolyline
 90
        2
 70
     0
 43
0.5
 10
254.649163379975
 20
238.851977912811
 10
255.845434520484
 20
240.503980308892
  0
LWPOLYLINE
  5
2C3
330
1F
100
AcDbEntity
  8
Sichtbare_Kanten_TC_020513_DIN_
  6
Continuous
 62
     7
100
AcDbPolyline
 90
        2
 70
     0
 43
0.5
 10
253.452892239466
 20
240.503980308892
 10
254.649163379975
 20
238.851977912811
  0
LWPOLYLINE
  5
2C4
330
1F
100
AcDbEntity
  8
Sichtbare_Kanten_TC_020513_DIN_
  6
Continuous
 62
     7
100
AcDbPolyline
 90
        2
 70
     0
 43
0.5
 10
252.774163379975
 20
235.136443353808
 10
252.774163379975
 20
240.284039908073
  0
LWPOLYLINE
  5
2C5
330
1F
100
AcDbEntity
  8
Sichtbare_Kanten_TC_020513_DIN_
  6
Continuous
 62
     7
100
AcDbPolyline
 90
        2
 70
     0
 43
0.5
 10
253.524163379975
 20
239.126802213857
 10
253.524163379975
 20
235.136443353808
  0
LWPOLYLINE
  5
2C6
330
1F
100
AcDbEntity
  8
Sichtbare_Kanten_TC_020513_DIN_
  6
Continuous
 62
     7
100
AcDbPolyline
 90
        2
 70
     0
 43
0.5
 10
254.649163379975
 20
237.573222400171
 10
253.524163379975
 20
239.126802213857
  0
LWPOLYLINE
  5
2C7
330
1F
100
AcDbEntity
  8
Sichtbare_Kanten_TC_020513_DIN_
  6
Continuous
 62
     7
100
AcDbPolyline
 90
        2
 70
     0
 43
0.5
 10
255.774163379975
 20
239.126802213857
 10
254.649163379975
 20
237.573222400171
  0
LWPOLYLINE
  5
2C8
330
1F
100
AcDbEntity
  8
Sichtbare_Kanten_TC_020513_DIN_
  6
Continuous
 62
     7
100
AcDbPolyline
 90
        2
 70
     0
 43
0.5
 10
254.461767459916
 20
232.172200682117
 10
251.386767459916
 20
233.946239143655
  0
LWPOLYLINE
  5
2C9
330
1F
100
AcDbEntity
  8
Sichtbare_Kanten_TC_020513_DIN_
  6
Continuous
 62
     7
100
AcDbPolyline
 90
        2
 70
     0
 43
0.5
 10
251.949163379975
 20
234.487645210148
 10
254.836559300034
 20
232.821839871653
  0
LWPOLYLINE
  5
2CA
330
1F
100
AcDbEntity
  8
Sichtbare_Kanten_TC_020513_DIN_
  6
Continuous
 62
     7
100
AcDbPolyline
 90
        2
 70
     0
 43
0.5
 10
251.949163379975
 20
239.375386061919
 10
251.949163379975
 20
234.487645210148
  0
LWPOLYLINE
  5
2CB
330
1F
100
AcDbEntity
  8
Sichtbare_Kanten_TC_020513_DIN_
  6
Continuous
 62
     7
100
AcDbPolyline
 90
        2
 70
     0
 43
0.5
 10
251.199163379975
 20
234.271058738423
 10
251.199163379975
 20
239.375386061919
  0
LWPOLYLINE
  5
2CC
330
1F
100
AcDbEntity
  8
Sichtbare_Kanten_TC_020513_DIN_
  6
Continuous
 62
     7
100
AcDbPolyline
 90
        2
 70
     0
 43
0.5
 10
254.649163379975
 20
242.0152897746
 10
245.649579930965
 20
236.823222400171
  0
LWPOLYLINE
  5
2CD
330
1F
100
AcDbEntity
  8
Sichtbare_Kanten_TC_020513_DIN_
  6
Continuous
 62
     7
100
AcDbPolyline
 90
        2
 70
     0
 43
0.5
 10
263.648746828985
 20
236.823222400171
 10
254.649163379975
 20
242.0152897746
  0
LWPOLYLINE
  5
2CE
330
1F
100
AcDbEntity
  8
Sichtbare_Kanten_TC_020513_DIN_
  6
Continuous
 62
     7
100
AcDbPolyline
 90
        2
 70
     0
 43
0.5
 10
254.649163379975
 20
231.631155025742
 10
263.648746828985
 20
236.823222400171
  0
LWPOLYLINE
  5
2CF
330
1F
100
AcDbEntity
  8
Sichtbare_Kanten_TC_020513_DIN_
  6
Continuous
 62
     7
100
AcDbPolyline
 90
        2
 70
     0
 43
0.5
 10
245.649579930965
 20
236.823222400171
 10
254.649163379975
 20
231.631155025742
  0
LWPOLYLINE
  5
2D0
330
1F
100
AcDbEntity
  8
Sichtbare_Kanten_TC_020513_DIN_
  6
Continuous
 62
     7
100
AcDbPolyline
 90
        2
 70
     0
 43
0.5
 10
249.699163379975
 20
235.136443353808
 10
249.699163379975
 20
238.510001446534
  0
LWPOLYLINE
  5
2D1
330
1F
100
AcDbEntity
  8
Sichtbare_Kanten_TC_020513_DIN_
  6
Continuous
 62
     7
100
AcDbPolyline
 90
        2
 70
     0
 43
0.5
 10
250.449163379975
 20
238.510001446534
 10
250.449163379975
 20
235.136443353808
  0
LWPOLYLINE
  5
2D2
330
1F
100
AcDbEntity
  8
Sichtbare_Kanten_TC_020513_DIN_
  6
Continuous
 62
     7
100
AcDbPolyline
 90
        2
 70
     0
 43
0.5
 10
260.086559300033
 20
235.201046835963
 10
257.836559300034
 20
233.902969912886
  0
LWPOLYLINE
  5
2D3
330
1F
100
AcDbEntity
  8
Sichtbare_Kanten_TC_020513_DIN_
  6
Continuous
 62
     7
100
AcDbPolyline
 90
        2
 70
     0
 43
0.5
 10
258.024163379975
 20
234.877068287072
 10
259.711767459916
 20
235.850686025499
  0
LWPOLYLINE
  5
2D4
330
1F
100
AcDbEntity
  8
Sichtbare_Kanten_TC_020513_DIN_
  6
Continuous
 62
     7
100
AcDbPolyline
 90
        2
 70
     0
 43
0.5
 10
258.024163379975
 20
236.448222400171
 10
258.024163379975
 20
234.877068287072
  0
LWPOLYLINE
  5
2D5
330
1F
100
AcDbEntity
  8
Sichtbare_Kanten_TC_020513_DIN_
  6
Continuous
 62
     7
100
AcDbPolyline
 90
        2
 70
     0
 43
0.5
 10
259.899163379975
 20
236.448222400171
 10
258.024163379975
 20
236.448222400171
  0
LWPOLYLINE
  5
2D6
330
1F
100
AcDbEntity
  8
Sichtbare_Kanten_TC_020513_DIN_
  6
Continuous
 62
     7
100
AcDbPolyline
 90
        2
 70
     0
 43
0.5
 10
258.024163379975
 20
237.198222400171
 10
259.899163379975
 20
237.198222400171
  0
LWPOLYLINE
  5
2D7
330
1F
100
AcDbEntity
  8
Sichtbare_Kanten_TC_020513_DIN_
  6
Continuous
 62
     7
100
AcDbPolyline
 90
        2
 70
     0
 43
0.5
 10
258.024163379975
 20
238.769376513271
 10
258.024163379975
 20
237.198222400171
  0
LWPOLYLINE
  5
2D8
330
1F
100
AcDbEntity
  8
Sichtbare_Kanten_TC_020513_DIN_
  6
Continuous
 62
     7
100
AcDbPolyline
 90
        2
 70
     0
 43
0.5
 10
259.711767459916
 20
237.795758774843
 10
258.024163379975
 20
238.769376513271
  0
LWPOLYLINE
  5
2D9
330
1F
100
AcDbEntity
  8
Sichtbare_Kanten_TC_020513_DIN_
  6
Continuous
 62
     7
100
AcDbPolyline
 90
        2
 70
     0
 43
0.5
 10
257.836559300034
 20
239.743474887456
 10
260.086559300034
 20
238.44539796438
  0
LWPOLYLINE
  5
2DA
330
1F
100
AcDbEntity
  8
Sichtbare_Kanten_TC_020513_DIN_
  6
Continuous
 62
     7
100
AcDbPolyline
 90
        2
 70
     0
 43
0.5
 10
257.274163379975
 20
234.227789507654
 10
257.274163379975
 20
239.418655292688
  0
LWPOLYLINE
  5
2DB
330
1F
100
AcDbEntity
  8
Sichtbare_Kanten_TC_020513_DIN_
  6
Continuous
 62
     7
100
AcDbPolyline
 90
        2
 70
     0
 43
0.5
 10
264.399163379975
 20
236.823222400171
 10
254.649163379975
 20
231.198222400171
  0
LWPOLYLINE
  5
2DC
330
1F
100
AcDbEntity
  8
Sichtbare_Kanten_TC_020513_DIN_
  6
Continuous
 62
     7
100
AcDbPolyline
 90
        2
 70
     0
 43
0.5
 10
254.649163379975
 20
242.448222400171
 10
264.399163379975
 20
236.823222400171
  0
LWPOLYLINE
  5
2DD
330
1F
100
AcDbEntity
  8
Sichtbare_Kanten_TC_020513_DIN_
  6
Continuous
 62
     7
100
AcDbPolyline
 90
        2
 70
     0
 43
0.5
 10
244.899163379975
 20
236.823222400171
 10
254.649163379975
 20
242.448222400171
  0
LWPOLYLINE
  5
2DE
330
1F
100
AcDbEntity
  8
Sichtbare_Kanten_TC_020513_DIN_
  6
Continuous
 62
     7
100
AcDbPolyline
 90
        2
 70
     0
 43
0.5
 10
254.649163379975
 20
231.198222400171
 10
244.899163379975
 20
236.823222400171
  0
LWPOLYLINE
  5
2DF
330
1F
100
AcDbEntity
  8
Sichtbare_Kanten_TC_020513_DIN_
  6
Continuous
 62
     7
100
AcDbPolyline
 90
        2
 70
     0
 43
0.5
 10
219.399163379975
 20
207.073222400171
 10
207.899163379975
 20
207.073222400171
  0
LWPOLYLINE
  5
2E0
330
1F
100
AcDbEntity
  8
Sichtbare_Kanten_TC_020513_DIN_
  6
Continuous
 62
     7
100
AcDbPolyline
 90
        2
 70
     0
 43
0.5
 10
207.899163379975
 20
207.073222400171
 10
207.899163379975
 20
184.823222400171
  0
LWPOLYLINE
  5
2E1
330
1F
100
AcDbEntity
  8
Sichtbare_Kanten_TC_020513_DIN_
  6
Continuous
 62
     7
100
AcDbPolyline
 90
        2
 70
     0
 43
0.5
 10
207.899163379975
 20
184.823222400171
 10
207.899163379975
 20
180.823222400171
  0
LWPOLYLINE
  5
2E2
330
1F
100
AcDbEntity
  8
Sichtbare_Kanten_TC_020513_DIN_
  6
Continuous
 62
     7
100
AcDbPolyline
 90
        2
 70
     0
 43
0.5
 10
240.149163379975
 20
258.323222400171
 10
245.499163379975
 20
258.323222400171
  0
LWPOLYLINE
  5
2E3
330
1F
100
AcDbEntity
  8
Sichtbare_Kanten_TC_020513_DIN_
  6
Continuous
 62
     7
100
AcDbPolyline
 90
        2
 70
     0
 43
0.5
 10
263.799163379975
 20
258.323222400171
 10
269.149163379975
 20
258.323222400171
  0
LWPOLYLINE
  5
2E4
330
1F
100
AcDbEntity
  8
Sichtbare_Kanten_TC_020513_DIN_
  6
Continuous
 62
     7
100
AcDbPolyline
 90
        2
 70
     0
 43
0.5
 10
239.649163379975
 20
257.823222400171
 10
239.649163379975
 20
253.823222400171
  0
LWPOLYLINE
  5
2E5
330
1F
100
AcDbEntity
  8
Sichtbare_Kanten_TC_020513_DIN_
  6
Continuous
 62
     7
100
AcDbPolyline
 90
        2
 70
     0
 43
0.5
 10
269.649163379975
 20
253.823222400171
 10
269.649163379975
 20
257.823222400171
  0
LWPOLYLINE
  5
2E6
330
1F
100
AcDbEntity
  8
Sichtbare_Kanten_TC_020513_DIN_
  6
Continuous
 62
     7
100
AcDbPolyline
 90
        2
 70
     0
 43
0.5
 10
290.167112572406
 20
181.323222400171
 10
278.939871236454
 20
181.323222400171
  0
LWPOLYLINE
  5
2E7
330
1F
100
AcDbEntity
  8
Sichtbare_Kanten_TC_020513_DIN_
  6
Continuous
 62
     7
100
AcDbPolyline
 90
        2
 70
     0
 43
0.5
 10
230.358455523496
 20
184.823222400171
 10
219.131214187544
 20
184.823222400171
  0
LWPOLYLINE
  5
2E8
330
1F
100
AcDbEntity
  8
Sichtbare_Kanten_TC_020513_DIN_
  6
Continuous
 62
     7
100
AcDbPolyline
 90
        2
 70
     0
 43
0.5
 10
219.131214187544
 20
181.323222400171
 10
230.358455523496
 20
181.323222400171
  0
LWPOLYLINE
  5
2E9
330
1F
100
AcDbEntity
  8
Sichtbare_Kanten_TC_020513_DIN_
  6
Continuous
 62
     7
100
AcDbPolyline
 90
        2
 70
     0
 43
0.5
 10
278.939871236454
 20
184.823222400171
 10
290.167112572406
 20
184.823222400171
  0
LWPOLYLINE
  5
2EA
330
1F
100
AcDbEntity
  8
Sichtbare_Kanten_TC_020513_DIN_
  6
Continuous
 62
     7
100
AcDbPolyline
 90
        2
 70
     0
 43
0.5
 10
218.631214187544
 20
184.823222400171
 10
208.899163379975
 20
184.823222400171
  0
LWPOLYLINE
  5
2EB
330
1F
100
AcDbEntity
  8
Sichtbare_Kanten_TC_020513_DIN_
  6
Continuous
 62
     7
100
AcDbPolyline
 90
        2
 70
     0
 43
0.5
 10
218.631214187544
 20
180.823222400171
 10
208.899163379975
 20
180.823222400171
  0
LWPOLYLINE
  5
2EC
330
1F
100
AcDbEntity
  8
Sichtbare_Kanten_TC_020513_DIN_
  6
Continuous
 62
     7
100
AcDbPolyline
 90
        2
 70
     0
 43
0.5
 10
290.667112572406
 20
180.823222400171
 10
300.399163379975
 20
180.823222400171
  0
LWPOLYLINE
  5
2ED
330
1F
100
AcDbEntity
  8
Sichtbare_Kanten_TC_020513_DIN_
  6
Continuous
 62
     7
100
AcDbPolyline
 90
        2
 70
     0
 43
0.5
 10
290.667112572406
 20
184.823222400171
 10
300.399163379975
 20
184.823222400171
  0
LWPOLYLINE
  5
2EE
330
1F
100
AcDbEntity
  8
Sichtbare_Kanten_TC_020513_DIN_
  6
Continuous
 62
     7
100
AcDbPolyline
 90
        2
 70
     0
 43
0.5
 10
301.399163379975
 20
207.073222400171
 10
289.899163379975
 20
207.073222400171
  0
LWPOLYLINE
  5
2EF
330
1F
100
AcDbEntity
  8
Sichtbare_Kanten_TC_020513_DIN_
  6
Continuous
 62
     7
100
AcDbPolyline
 90
        2
 70
     0
 43
0.5
 10
301.399163379975
 20
207.073222400171
 10
301.399163379975
 20
184.823222400171
  0
LWPOLYLINE
  5
2F0
330
1F
100
AcDbEntity
  8
Sichtbare_Kanten_TC_020513_DIN_
  6
Continuous
 62
     7
100
AcDbPolyline
 90
        2
 70
     0
 43
0.5
 10
301.399163379975
 20
180.823222400171
 10
301.399163379975
 20
184.823222400171
  0
LWPOLYLINE
  5
2F1
330
1F
100
AcDbEntity
  8
Sichtbare_Kanten_TC_020513_DIN_
  6
Continuous
 62
     7
100
AcDbPolyline
 90
        2
 70
     0
 43
0.5
 10
290.667112572406
 20
180.823222400171
 10
290.399163379975
 20
180.823222400171
  0
LWPOLYLINE
  5
2F2
330
1F
100
AcDbEntity
  8
Sichtbare_Kanten_TC_020513_DIN_
  6
Continuous
 62
     7
100
AcDbPolyline
 90
        2
 70
     0
 43
0.5
 10
290.399163379975
 20
181.323222400171
 10
290.399163379975
 20
180.823222400171
  0
LWPOLYLINE
  5
2F3
330
1F
100
AcDbEntity
  8
Sichtbare_Kanten_TC_020513_DIN_
  6
Continuous
 62
     7
100
AcDbPolyline
 90
        2
 70
     0
 43
0.5
 10
290.399163379975
 20
181.323222400171
 10
290.167112572406
 20
181.323222400171
  0
LWPOLYLINE
  5
2F4
330
1F
100
AcDbEntity
  8
Sichtbare_Kanten_TC_020513_DIN_
  6
Continuous
 62
     7
100
AcDbPolyline
 90
        2
 70
     0
 43
0.5
 10
230.358455523496
 20
181.323222400171
 10
230.858455523496
 20
181.323222400171
  0
LWPOLYLINE
  5
2F5
330
1F
100
AcDbEntity
  8
Sichtbare_Kanten_TC_020513_DIN_
  6
Continuous
 62
     7
100
AcDbPolyline
 90
        2
 70
     0
 43
0.5
 10
230.858455523496
 20
184.823222400171
 10
230.358455523496
 20
184.823222400171
  0
LWPOLYLINE
  5
2F6
330
1F
100
AcDbEntity
  8
Sichtbare_Kanten_TC_020513_DIN_
  6
Continuous
 62
     7
100
AcDbPolyline
 90
        2
 70
     0
 43
0.5
 10
278.439871236454
 20
181.323222400171
 10
278.939871236454
 20
181.323222400171
  0
LWPOLYLINE
  5
2F7
330
1F
100
AcDbEntity
  8
Sichtbare_Kanten_TC_020513_DIN_
  6
Continuous
 62
     7
100
AcDbPolyline
 90
        2
 70
     0
 43
0.5
 10
219.131214187544
 20
181.323222400171
 10
218.899163379975
 20
181.323222400171
  0
LWPOLYLINE
  5
2F8
330
1F
100
AcDbEntity
  8
Sichtbare_Kanten_TC_020513_DIN_
  6
Continuous
 62
     7
100
AcDbPolyline
 90
        2
 70
     0
 43
0.5
 10
218.631214187544
 20
184.823222400171
 10
219.131214187544
 20
184.823222400171
  0
LWPOLYLINE
  5
2F9
330
1F
100
AcDbEntity
  8
Sichtbare_Kanten_TC_020513_DIN_
  6
Continuous
 62
     7
100
AcDbPolyline
 90
        2
 70
     0
 43
0.5
 10
218.899163379975
 20
180.823222400171
 10
218.899163379975
 20
181.323222400171
  0
LWPOLYLINE
  5
2FA
330
1F
100
AcDbEntity
  8
Sichtbare_Kanten_TC_020513_DIN_
  6
Continuous
 62
     7
100
AcDbPolyline
 90
        2
 70
     0
 43
0.5
 10
218.899163379975
 20
180.823222400171
 10
218.631214187544
 20
180.823222400171
  0
LWPOLYLINE
  5
2FB
330
1F
100
AcDbEntity
  8
Sichtbare_Kanten_TC_020513_DIN_
  6
Continuous
 62
     7
100
AcDbPolyline
 90
        2
 70
     0
 43
0.5
 10
208.899163379975
 20
180.823222400171
 10
207.899163379975
 20
180.823222400171
  0
LWPOLYLINE
  5
2FC
330
1F
100
AcDbEntity
  8
Sichtbare_Kanten_TC_020513_DIN_
  6
Continuous
 62
     7
100
AcDbPolyline
 90
        2
 70
     0
 43
0.5
 10
207.899163379975
 20
184.823222400171
 10
208.899163379975
 20
184.823222400171
  0
LWPOLYLINE
  5
2FD
330
1F
100
AcDbEntity
  8
Sichtbare_Kanten_TC_020513_DIN_
  6
Continuous
 62
     7
100
AcDbPolyline
 90
        2
 70
     0
 43
0.5
 10
290.167112572406
 20
184.823222400171
 10
290.667112572406
 20
184.823222400171
  0
LWPOLYLINE
  5
2FE
330
1F
100
AcDbEntity
  8
Sichtbare_Kanten_TC_020513_DIN_
  6
Continuous
 62
     7
100
AcDbPolyline
 90
        2
 70
     0
 43
0.5
 10
278.939871236454
 20
184.823222400171
 10
278.439871236454
 20
184.823222400171
  0
LWPOLYLINE
  5
2FF
330
1F
100
AcDbEntity
  8
Sichtbare_Kanten_TC_020513_DIN_
  6
Continuous
 62
     7
100
AcDbPolyline
 90
        2
 70
     0
 43
0.5
 10
301.399163379975
 20
180.823222400171
 10
300.399163379975
 20
180.823222400171
  0
LWPOLYLINE
  5
300
330
1F
100
AcDbEntity
  8
Sichtbare_Kanten_TC_020513_DIN_
  6
Continuous
 62
     7
100
AcDbPolyline
 90
        2
 70
     0
 43
0.5
 10
300.399163379975
 20
184.823222400171
 10
301.399163379975
 20
184.823222400171
  0
LWPOLYLINE
  5
301
330
1F
100
AcDbEntity
  8
Sichtbare_Kanten_TC_020513_DIN_
  6
Continuous
 62
     7
100
AcDbPolyline
 90
        2
 70
     0
 43
0.5
 10
414.694989730522
 20
227.823222400171
 42
0.4142135623731
 10
415.694989730522
 20
226.823222400171
  0
LWPOLYLINE
  5
302
330
1F
100
AcDbEntity
  8
Sichtbare_Kanten_TC_020513_DIN_
  6
Continuous
 62
     7
100
AcDbPolyline
 90
        2
 70
     0
 43
0.5
 10
415.694989730522
 20
258.323222400171
 42
0.4142135623731
 10
414.694989730522
 20
257.323222400171
  0
LWPOLYLINE
  5
303
330
1F
100
AcDbEntity
  8
Sichtbare_Kanten_TC_020513_DIN_
  6
Continuous
 62
     7
100
AcDbPolyline
 90
        2
 70
     0
 43
0.5
 10
408.194989730517
 20
310.323222400171
 42
0.4142135623731
 10
406.194989730517
 20
308.323222400171
  0
LWPOLYLINE
  5
304
330
1F
100
AcDbEntity
  8
Sichtbare_Kanten_TC_020513_DIN_
  6
Continuous
 62
     7
100
AcDbPolyline
 90
        2
 70
     0
 43
0.5
 10
406.194989730517
 20
268.823222400171
 42
0.4142135623731
 10
408.194989730517
 20
266.823222400171
  0
LWPOLYLINE
  5
305
330
1F
100
AcDbEntity
  8
Sichtbare_Kanten_TC_020513_DIN_
  6
Continuous
 62
     7
100
AcDbPolyline
 90
        2
 70
     0
 43
0.5
 10
411.220176936819
 20
250.434993832517
 42
0.33945425886331
 10
412.669065676252
 20
249.323222400171
  0
LWPOLYLINE
  5
306
330
1F
100
AcDbEntity
  8
Sichtbare_Kanten_TC_020513_DIN_
  6
Continuous
 62
     7
100
AcDbPolyline
 90
        2
 70
     0
 43
0.5
 10
406.672837879062
 20
267.405894235307
 42
0.08294873678138
 10
406.53627127869
 20
267.70579092686
  0
LWPOLYLINE
  5
307
330
1F
100
AcDbEntity
  8
Sichtbare_Kanten_TC_020513_DIN_
  6
Continuous
 62
     7
100
AcDbPolyline
 90
        2
 70
     0
 43
0.5
 10
417.694989730514
 20
292.314879786945
 42
1.87082869338695
 10
417.694989730514
 20
284.831565013397
  0
LWPOLYLINE
  5
308
330
1F
100
AcDbEntity
  8
Sichtbare_Kanten_TC_020513_DIN_
  6
Continuous
 62
     7
100
AcDbPolyline
 90
        2
 70
     0
 43
0.5
 10
459.218745507945
 20
184.823222400171
 42
4.21900462194561
 10
448.67123395308
 20
184.823222400171
  0
LWPOLYLINE
  5
309
330
1F
100
AcDbEntity
  8
Sichtbare_Kanten_TC_020513_DIN_
  6
Continuous
 62
     7
100
AcDbPolyline
 90
        2
 70
     0
 43
0.5
 10
269.649163379975
 20
257.823222400171
 42
0.4142135623731
 10
269.149163379975
 20
258.323222400171
  0
LWPOLYLINE
  5
30A
330
1F
100
AcDbEntity
  8
Sichtbare_Kanten_TC_020513_DIN_
  6
Continuous
 62
     7
100
AcDbPolyline
 90
        2
 70
     0
 43
0.5
 10
240.149163379975
 20
258.323222400171
 42
0.4142135623731
 10
239.649163379975
 20
257.823222400171
  0
LWPOLYLINE
  5
30B
330
1F
100
AcDbEntity
  8
Sichtbare_Kanten_TC_020513_DIN_
  6
Continuous
 62
     7
100
AcDbPolyline
 90
        2
 70
     0
 43
0.5
 10
219.399163379975
 20
272.823222400171
 42
0.4142135623731
 10
225.399163379975
 20
266.823222400171
  0
LWPOLYLINE
  5
30C
330
1F
100
AcDbEntity
  8
Sichtbare_Kanten_TC_020513_DIN_
  6
Continuous
 62
     7
100
AcDbPolyline
 90
        2
 70
     0
 43
0.5
 10
225.399163379975
 20
310.323222400171
 42
0.4142135623731
 10
219.399163379975
 20
304.323222400171
  0
LWPOLYLINE
  5
30D
330
1F
100
AcDbEntity
  8
Sichtbare_Kanten_TC_020513_DIN_
  6
Continuous
 62
     7
100
AcDbPolyline
 90
        2
 70
     0
 43
0.5
 10
289.899163379975
 20
304.323222400171
 42
0.4142135623731
 10
283.899163379975
 20
310.323222400171
  0
LWPOLYLINE
  5
30E
330
1F
100
AcDbEntity
  8
Sichtbare_Kanten_TC_020513_DIN_
  6
Continuous
 62
     7
100
AcDbPolyline
 90
        2
 70
     0
 43
0.5
 10
225.399163379975
 20
307.823222400171
 42
0.4142135623731
 10
221.899163379975
 20
304.323222400171
  0
LWPOLYLINE
  5
30F
330
1F
100
AcDbEntity
  8
Sichtbare_Kanten_TC_020513_DIN_
  6
Continuous
 62
     7
100
AcDbPolyline
 90
        2
 70
     0
 43
0.5
 10
287.399163379975
 20
304.323222400171
 42
0.4142135623731
 10
283.899163379975
 20
307.823222400171
  0
LWPOLYLINE
  5
310
330
1F
100
AcDbEntity
  8
Sichtbare_Kanten_TC_020513_DIN_
  6
Continuous
 62
     7
100
AcDbPolyline
 90
        2
 70
     0
 43
0.5
 10
221.899163379975
 20
272.823222400171
 42
0.4142135623731
 10
225.399163379975
 20
269.323222400171
  0
LWPOLYLINE
  5
311
330
1F
100
AcDbEntity
  8
Sichtbare_Kanten_TC_020513_DIN_
  6
Continuous
 62
     7
100
AcDbPolyline
 90
        2
 70
     0
 43
0.5
 10
283.899163379975
 20
269.323222400171
 42
0.4142135623731
 10
287.399163379975
 20
272.823222400171
  0
LWPOLYLINE
  5
312
330
1F
100
AcDbEntity
  8
Sichtbare_Kanten_TC_020513_DIN_
  6
Continuous
 62
     7
100
AcDbPolyline
 90
        2
 70
     0
 43
0.5
 10
283.899163379975
 20
266.823222400171
 42
0.4142135623731
 10
289.899163379975
 20
272.823222400171
  0
LWPOLYLINE
  5
313
330
1F
100
AcDbEntity
  8
Sichtbare_Kanten_TC_020513_DIN_
  6
Continuous
 62
     7
100
AcDbPolyline
 90
        2
 70
     0
 43
0.5
 10
245.649163379975
 20
265.823222400171
 42
0.4142135623731
 10
244.649163379975
 20
266.823222400171
  0
LWPOLYLINE
  5
314
330
1F
100
AcDbEntity
  8
Sichtbare_Kanten_TC_020513_DIN_
  6
Continuous
 62
     7
100
AcDbPolyline
 90
        2
 70
     0
 43
0.5
 10
264.649163379975
 20
266.823222400171
 42
0.4142135623731
 10
263.649163379975
 20
265.823222400171
  0
LWPOLYLINE
  5
315
330
1F
100
AcDbEntity
  8
Sichtbare_Kanten_TC_020513_DIN_
  6
Continuous
 62
     7
100
AcDbPolyline
 90
        2
 70
     0
 43
0.5
 10
255.774163379975
 20
233.36240489227
 42
1.0
 10
256.524163379975
 20
233.36240489227
  0
LWPOLYLINE
  5
316
330
1F
100
AcDbEntity
  8
Sichtbare_Kanten_TC_020513_DIN_
  6
Continuous
 62
     7
100
AcDbPolyline
 90
        2
 70
     0
 43
0.5
 10
256.524163379975
 20
240.284039908073
 42
0.7271455171383
 10
255.845434520484
 20
240.503980308892
  0
LWPOLYLINE
  5
317
330
1F
100
AcDbEntity
  8
Sichtbare_Kanten_TC_020513_DIN_
  6
Continuous
 62
     7
100
AcDbPolyline
 90
        2
 70
     0
 43
0.5
 10
253.452892239466
 20
240.503980308892
 42
0.7271455171383
 10
252.774163379975
 20
240.284039908073
  0
LWPOLYLINE
  5
318
330
1F
100
AcDbEntity
  8
Sichtbare_Kanten_TC_020513_DIN_
  6
Continuous
 62
     7
100
AcDbPolyline
 90
        2
 70
     0
 43
0.5
 10
252.774163379975
 20
235.136443353808
 42
1.0
 10
253.524163379975
 20
235.136443353808
  0
LWPOLYLINE
  5
319
330
1F
100
AcDbEntity
  8
Sichtbare_Kanten_TC_020513_DIN_
  6
Continuous
 62
     7
100
AcDbPolyline
 90
        2
 70
     0
 43
0.5
 10
251.199163379975
 20
234.271058738423
 42
0.26803505952173
 10
251.386767459916
 20
233.946239143655
  0
LWPOLYLINE
  5
31A
330
1F
100
AcDbEntity
  8
Sichtbare_Kanten_TC_020513_DIN_
  6
Continuous
 62
     7
100
AcDbPolyline
 90
        2
 70
     0
 43
0.5
 10
254.461767459916
 20
232.172200682117
 42
1.0
 10
254.836559300034
 20
232.821839871653
  0
LWPOLYLINE
  5
31B
330
1F
100
AcDbEntity
  8
Sichtbare_Kanten_TC_020513_DIN_
  6
Continuous
 62
     7
100
AcDbPolyline
 90
        2
 70
     0
 43
0.5
 10
251.949163379975
 20
239.375386061919
 42
1.0
 10
251.199163379975
 20
239.375386061919
  0
LWPOLYLINE
  5
31C
330
1F
100
AcDbEntity
  8
Sichtbare_Kanten_TC_020513_DIN_
  6
Continuous
 62
     7
100
AcDbPolyline
 90
        2
 70
     0
 43
0.5
 10
249.699163379975
 20
235.136443353808
 42
1.0
 10
250.449163379975
 20
235.136443353808
  0
LWPOLYLINE
  5
31D
330
1F
100
AcDbEntity
  8
Sichtbare_Kanten_TC_020513_DIN_
  6
Continuous
 62
     7
100
AcDbPolyline
 90
        2
 70
     0
 43
0.5
 10
250.449163379975
 20
238.510001446534
 42
1.0
 10
249.699163379975
 20
238.510001446534
  0
LWPOLYLINE
  5
31E
330
1F
100
AcDbEntity
  8
Sichtbare_Kanten_TC_020513_DIN_
  6
Continuous
 62
     7
100
AcDbPolyline
 90
        2
 70
     0
 43
0.5
 10
257.274163379975
 20
234.227789507654
 42
0.57724345630819
 10
257.836559300034
 20
233.902969912886
  0
LWPOLYLINE
  5
31F
330
1F
100
AcDbEntity
  8
Sichtbare_Kanten_TC_020513_DIN_
  6
Continuous
 62
     7
100
AcDbPolyline
 90
        2
 70
     0
 43
0.5
 10
260.086559300033
 20
235.201046835963
 42
1.00000000000114
 10
259.711767459916
 20
235.850686025499
  0
LWPOLYLINE
  5
320
330
1F
100
AcDbEntity
  8
Sichtbare_Kanten_TC_020513_DIN_
  6
Continuous
 62
     7
100
AcDbPolyline
 90
        2
 70
     0
 43
0.5
 10
259.899163379975
 20
236.448222400171
 42
1.0
 10
259.899163379975
 20
237.198222400171
  0
LWPOLYLINE
  5
321
330
1F
100
AcDbEntity
  8
Sichtbare_Kanten_TC_020513_DIN_
  6
Continuous
 62
     7
100
AcDbPolyline
 90
        2
 70
     0
 43
0.5
 10
259.711767459916
 20
237.795758774843
 42
1.00000000000059
 10
260.086559300034
 20
238.44539796438
  0
LWPOLYLINE
  5
322
330
1F
100
AcDbEntity
  8
Sichtbare_Kanten_TC_020513_DIN_
  6
Continuous
 62
     7
100
AcDbPolyline
 90
        2
 70
     0
 43
0.5
 10
257.836559300034
 20
239.743474887456
 42
0.57724345630819
 10
257.274163379975
 20
239.418655292688
  0
LWPOLYLINE
  5
323
330
1F
100
AcDbEntity
  8
Sichtbare_Kanten_TC_020513_DIN_
  6
Continuous
 62
     7
100
AcDbPolyline
 90
        3
 70
     0
 43
0.5
 10
445.944989730508
 20
195.323222400171
 42
1.0
 10
461.944989730516
 20
195.323222400171
 42
1.0
 10
445.944989730508
 20
195.323222400171
  0
LWPOLYLINE
  5
324
330
1F
100
AcDbEntity
  8
Sichtbare_Kanten_TC_020513_DIN_
  6
Continuous
 62
     7
100
AcDbPolyline
 90
        3
 70
     0
 43
0.5
 10
443.944989730512
 20
195.323222400171
 42
1.0
 10
463.944989730512
 20
195.323222400171
 42
1.0
 10
443.944989730512
 20
195.323222400171
  0
LWPOLYLINE
  5
325
330
1F
100
AcDbEntity
  8
Sichtbare_Kanten_TC_020513_DIN_
  6
Continuous
 62
     7
100
AcDbPolyline
 90
        3
 70
     0
 43
0.5
 10
239.649163379975
 20
244.323222400171
 42
1.0
 10
244.149163379975
 20
244.323222400171
 42
1.0
 10
239.649163379975
 20
244.323222400171
  0
LWPOLYLINE
  5
326
330
1F
100
AcDbEntity
  8
Sichtbare_Kanten_TC_020513_DIN_
  6
Continuous
 62
     7
100
AcDbPolyline
 90
        3
 70
     0
 43
0.5
 10
239.399163379975
 20
244.323222400171
 42
1.0
 10
244.399163379975
 20
244.323222400171
 42
1.0
 10
239.399163379975
 20
244.323222400171
  0
LWPOLYLINE
  5
327
330
1F
100
AcDbEntity
  8
Sichtbare_Kanten_TC_020513_DIN_
  6
Continuous
 62
     7
100
AcDbPolyline
 90
        3
 70
     0
 43
0.5
 10
237.899163379975
 20
244.323222400171
 42
1.0
 10
245.899163379975
 20
244.323222400171
 42
1.0
 10
237.899163379975
 20
244.323222400171
  0
LWPOLYLINE
  5
328
330
1F
100
AcDbEntity
  8
Sichtbare_Kanten_TC_020513_DIN_
  6
Continuous
 62
     7
100
AcDbPolyline
 90
        3
 70
     0
 43
0.5
 10
265.149163379975
 20
244.323222400171
 42
1.0
 10
269.649163379975
 20
244.323222400171
 42
1.0
 10
265.149163379975
 20
244.323222400171
  0
LWPOLYLINE
  5
329
330
1F
100
AcDbEntity
  8
Sichtbare_Kanten_TC_020513_DIN_
  6
Continuous
 62
     7
100
AcDbPolyline
 90
        3
 70
     0
 43
0.5
 10
264.899163379975
 20
244.323222400171
 42
1.0
 10
269.899163379975
 20
244.323222400171
 42
1.0
 10
264.899163379975
 20
244.323222400171
  0
LWPOLYLINE
  5
32A
330
1F
100
AcDbEntity
  8
Sichtbare_Kanten_TC_020513_DIN_
  6
Continuous
 62
     7
100
AcDbPolyline
 90
        3
 70
     0
 43
0.5
 10
263.399163379975
 20
244.323222400171
 42
1.0
 10
271.399163379975
 20
244.323222400171
 42
1.0
 10
263.399163379975
 20
244.323222400171
  0
LEADER
  5
32B
330
1F
100
AcDbEntity
  8
Symbole_TC_020513_DIN_
  6
Continuous
 62
     7
100
AcDbLeader
  3
Standard
 71
     0
 76
     3
 10
476.444989730514
 20
184.823222400171
 30
0.0
 10
488.205738192925
 20
217.452775413562
 30
0.0
 10
491.605738192925
 20
217.452775413562
 30
0.0
  0
TEXT
  5
32D
330
1F
100
AcDbEntity
  8
Symbole_ISO_
 62
     7
100
AcDbText
 10
276.0
 20
38.4999999403953
 30
0.0
 40
8.00000011920929
  1
MHP 10 CS220
 41
0.74999995529652
  7
CONVERTER_13
100
AcDbText
  0
TEXT
  5
32F
330
1F
100
AcDbEntity
  8
Symbole_ISO_
 62
     7
100
AcDbText
 10
502.610914283349
 20
24.9999999999999
 30
0.0
 40
10.0
  1
1:2
 41
0.56249998509884
  7
CONVERTER_14
100
AcDbText
  0
TEXT
  5
331
330
1F
100
AcDbEntity
  8
Symbole_ISO_
 62
     7
100
AcDbText
 10
276.0
 20
23.4999999403953
 30
0.0
 40
8.00000011920929
  1
surface mount. h. pegs and cover 2xM20
 41
0.625
  7
CONVERTER_15
100
AcDbText
  0
TOLERANCE
  5
333
330
1F
100
AcDbEntity
  8
Symbole_TC_020513_DIN_
 62
     7
100
AcDbFcf
  3
ME10_DIM_10
 10
493.205738192925
 20
213.9527754731663
 30
0.0
  1
{\Fgdt;n}^J5,5
1001
ACAD
1000
DSTYLE
1002
{
1070
   140
1040
6.99999988079071
1002
}
  0
DIMENSION
  5
33E
330
1F
100
AcDbEntity
  8
Bemaßungen_TC_020513_DIN_
100
AcDbDimension
  2
*D3
 10
482.194989730522
 20
336.3232328357732
 30
0.0
 11
444.952384000642
 21
344.4095526859865
 31
0.0
 70
    32
  1
76
 71
     5
 42
-1.0
 53
0.00013888888889
  3
ME10_DIM_11
100
AcDbAlignedDimension
 13
406.194989730516
 23
304.323222400171
 33
0.0
 14
482.194989730522
 24
246.573222400171
 34
0.0
100
AcDbRotatedDimension
  0
DIMENSION
  5
349
330
1F
100
AcDbEntity
  8
Bemaßungen_TC_020513_DIN_
100
AcDbDimension
  2
*D4
 10
537.4449897305125
 20
180.823222400171
 30
0.0
 11
529.3538845470165
 21
218.078229221454
 31
0.0
 70
    32
  1
73
 71
     5
 42
-1.0
 53
90.0
  3
ME10_DIM_12
100
AcDbAlignedDimension
 13
469.944989730516
 23
253.823222400171
 33
0.0
 14
481.444989730512
 24
180.823222400171
 34
0.0
 50
90.0
100
AcDbRotatedDimension
  0
DIMENSION
  5
356
330
1F
100
AcDbEntity
  8
Bemaßungen_TC_020513_DIN_
100
AcDbDimension
  2
*D5
 10
501.4449897305121
 20
184.823222400171
 30
0.0
 11
493.5589200787707
 21
162.490664735097
 31
0.0
 70
    32
  1
4
 71
     5
 42
-1.0
 53
90.0
  3
ME10_DIM_13
100
AcDbAlignedDimension
 13
481.444989730512
 23
180.823222400171
 33
0.0
 14
481.444989730512
 24
184.823222400171
 34
0.0
 50
90.0
100
AcDbRotatedDimension
  0
DIMENSION
  5
361
330
1F
100
AcDbEntity
  8
Bemaßungen_TC_020513_DIN_
100
AcDbDimension
  2
*D6
 10
482.444989730512
 20
136.8232328357724
 30
0.0
 11
454.67134716571
 21
144.2192117576124
 31
0.0
 70
    32
  1
52
 71
     5
 42
-1.0
 53
0.00013888888889
  3
ME10_DIM_14
100
AcDbAlignedDimension
 13
425.444989730512
 23
180.823222400171
 33
0.0
 14
482.444989730512
 24
180.823222400171
 34
0.0
100
AcDbRotatedDimension
  0
DIMENSION
  5
36C
330
1F
100
AcDbEntity
  8
Bemaßungen_TC_020513_DIN_
100
AcDbDimension
  2
*D7
 10
476.444989730514
 20
155.8232328357723
 30
0.0
 11
454.504225746885
 21
163.2192117576124
 31
0.0
 70
    32
  1
40
 71
     5
 42
-1.0
 53
0.00013888888889
  3
ME10_DIM_15
100
AcDbAlignedDimension
 13
431.444989730514
 23
175.823222400171
 33
0.0
 14
476.444989730514
 24
175.823222400171
 34
0.0
100
AcDbRotatedDimension
  0
DIMENSION
  5
377
330
1F
100
AcDbEntity
  8
Bemaßungen_TC_020513_DIN_
100
AcDbDimension
  2
*D8
 10
301.399163379975
 20
136.8232432713873
 30
0.0
 11
257.011496258556
 21
146.69728863109
 31
0.0
 70
    32
  1
93,5
 71
     5
 42
-1.0
 53
0.00013888888889
  3
ME10_DIM_16
100
AcDbAlignedDimension
 13
207.899163379975
 23
180.823222400171
 33
0.0
 14
301.399163379975
 24
180.823222400171
 34
0.0
100
AcDbRotatedDimension
  0
DIMENSION
  5
382
330
1F
100
AcDbEntity
  8
Bemaßungen_TC_020513_DIN_
100
AcDbDimension
  2
*D9
 10
213.649163379975
 20
155.8232328357731
 30
0.0
 11
255.406557650098
 21
163.9095526859864
 31
0.0
 70
    32
  1
82
 71
     5
 42
-1.0
 53
0.00013888888889
  3
ME10_DIM_17
100
AcDbAlignedDimension
 13
295.649163379975
 23
175.823222400171
 33
0.0
 14
213.649163379975
 24
175.823222400171
 34
0.0
100
AcDbRotatedDimension
  0
DIMENSION
  5
38D
330
1F
100
AcDbEntity
  8
Bemaßungen_TC_020513_DIN_
100
AcDbDimension
  2
*D10
 10
320.8991633799747
 20
185.323222400171
 30
0.0
 11
312.8128330941595
 21
195.018488430185
 31
0.0
 70
    32
  1
M20
 71
     5
 42
-1.0
 53
90.0
  3
ME10_DIM_18
100
AcDbAlignedDimension
 13
300.899163379975
 23
205.323222400171
 33
0.0
 14
300.899163379975
 24
185.323222400171
 34
0.0
 50
90.0
100
AcDbRotatedDimension
  0
DIMENSION
  5
398
330
1F
100
AcDbEntity
  8
Bemaßungen_TC_020513_DIN_
100
AcDbDimension
  2
*D11
 10
188.3991633799748
 20
185.323222400171
 30
0.0
 11
180.3128330941596
 21
195.018488430185
 31
0.0
 70
    32
  1
M20
 71
     5
 42
-1.0
 53
90.0
  3
ME10_DIM_19
100
AcDbAlignedDimension
 13
208.399163379975
 23
205.323222400171
 33
0.0
 14
208.399163379975
 24
185.323222400171
 34
0.0
 50
90.0
100
AcDbRotatedDimension
  0
HATCH
  5
399
330
1F
100
AcDbEntity
  8
Symbole_TC_020513_DIN_
  6
Continuous
 62
     7
100
AcDbHatch
 10
0.0
 20
0.0
 30
0.0
210
0.0
220
0.0
230
1.0
  2
SOLID
 70
     1
 71
     1
 91
        1
 92
        1
 93
        3
 72
     1
 10
478.759653062029
 20
189.303807536597
 11
477.521122055078
 21
189.750214253529
 72
     1
 10
477.521122055078
 20
189.750214253529
 11
476.444989730514
 21
184.823222400171
 72
     1
 10
476.444989730514
 20
184.823222400171
 11
478.759653062029
 21
189.303807536597
 97
        3
330
1F4
330
1F5
330
1F6
 75
     0
 76
     1
 98
        1
 10
0.0
 20
0.0
  0
ENDSEC
  0
SECTION
  2
OBJECTS
  0
DICTIONARY
  5
C
330
0
100
AcDbDictionary
281
     1
  3
ACAD_GROUP
350
D
  3
ACAD_LAYOUT
350
1A
  3
ACAD_MLEADERSTYLE
350
39B
  3
ACAD_MLINESTYLE
350
17
  3
ACAD_PLOTSETTINGS
350
19
  3
ACAD_PLOTSTYLENAME
350
E
  3
ACAD_TABLESTYLE
350
39A
  3
ACAD_VISUALSTYLE
350
2A
  0
DICTIONARY
  5
D
102
{ACAD_REACTORS
330
C
102
}
330
C
100
AcDbDictionary
281
     1
  0
DICTIONARY
  5
1A
102
{ACAD_REACTORS
330
C
102
}
330
C
100
AcDbDictionary
281
     1
  3
Layout1
350
1E
  3
Layout2
350
26
  3
Model
350
22
  0
DICTIONARY
  5
39B
102
{ACAD_REACTORS
330
C
102
}
330
C
100
AcDbDictionary
281
     1
  0
DICTIONARY
  5
17
102
{ACAD_REACTORS
330
C
102
}
330
C
100
AcDbDictionary
281
     1
  3
Standard
350
18
  0
DICTIONARY
  5
19
102
{ACAD_REACTORS
330
C
102
}
330
C
100
AcDbDictionary
281
     1
  0
ACDBDICTIONARYWDFLT
  5
E
102
{ACAD_REACTORS
330
C
102
}
330
C
100
AcDbDictionary
281
     1
  3
Normal
350
F
100
AcDbDictionaryWithDefault
340
F
  0
DICTIONARY
  5
39A
102
{ACAD_REACTORS
330
C
102
}
330
C
100
AcDbDictionary
281
     1
  0
DICTIONARY
  5
2A
102
{ACAD_REACTORS
330
C
102
}
330
C
100
AcDbDictionary
281
     1
  3
2dWireframe
350
2F
  3
3D Hidden
350
31
  3
3dWireframe
350
30
  3
Basic
350
32
  3
Brighten
350
36
  3
ColorChange
350
3A
  3
Conceptual
350
34
  3
Dim
350
35
  3
Facepattern
350
39
  3
Flat
350
2B
  3
FlatWithEdges
350
2C
  3
Gouraud
350
2D
  3
GouraudWithEdges
350
2E
  3
Linepattern
350
38
  3
Realistic
350
33
  3
Thicken
350
37
  0
LAYOUT
  5
1E
102
{ACAD_REACTORS
330
1A
102
}
330
1A
100
AcDbPlotSettings
  1

  2
none_device
  4

  6

 40
0.0
 41
0.0
 42
0.0
 43
0.0
 44
0.0
 45
0.0
 46
0.0
 47
0.0
 48
0.0
 49
0.0
140
0.0
141
0.0
142
1.0
143
1.0
 70
   688
 72
     0
 73
     0
 74
     5
  7

 75
    16
147
1.0
148
0.0
149
0.0
100
AcDbLayout
  1
Layout1
 70
     1
 71
     1
 10
0.0
 20
0.0
 11
12.0
 21
9.0
 12
0.0
 22
0.0
 32
0.0
 14
1.00000000000000E+20
 24
1.00000000000000E+20
 34
1.00000000000000E+20
 15
-1.00000000000000E+20
 25
-1.00000000000000E+20
 35
-1.00000000000000E+20
146
0.0
 13
0.0
 23
0.0
 33
0.0
 16
1.0
 26
0.0
 36
0.0
 17
0.0
 27
1.0
 37
0.0
 76
     0
330
1B
  0
LAYOUT
  5
26
102
{ACAD_REACTORS
330
1A
102
}
330
1A
100
AcDbPlotSettings
  1

  2
none_device
  4

  6

 40
0.0
 41
0.0
 42
0.0
 43
0.0
 44
0.0
 45
0.0
 46
0.0
 47
0.0
 48
0.0
 49
0.0
140
0.0
141
0.0
142
1.0
143
1.0
 70
   688
 72
     0
 73
     0
 74
     5
  7

 75
    16
147
1.0
148
0.0
149
0.0
100
AcDbLayout
  1
Layout2
 70
     1
 71
     2
 10
0.0
 20
0.0
 11
0.0
 21
0.0
 12
0.0
 22
0.0
 32
0.0
 14
0.0
 24
0.0
 34
0.0
 15
0.0
 25
0.0
 35
0.0
146
0.0
 13
0.0
 23
0.0
 33
0.0
 16
1.0
 26
0.0
 36
0.0
 17
0.0
 27
1.0
 37
0.0
 76
     0
330
23
  0
LAYOUT
  5
22
102
{ACAD_REACTORS
330
1A
102
}
330
1A
100
AcDbPlotSettings
  1

  2
none_device
  4

  6

 40
0.0
 41
0.0
 42
0.0
 43
0.0
 44
0.0
 45
0.0
 46
0.0
 47
0.0
 48
0.0
 49
0.0
140
0.0
141
0.0
142
1.0
143
1.0
 70
  1712
 72
     0
 73
     0
 74
     0
  7

 75
     0
147
1.0
148
0.0
149
0.0
100
AcDbLayout
  1
Model
 70
     1
 71
     0
 10
0.0
 20
0.0
 11
12.0
 21
9.0
 12
0.0
 22
0.0
 32
0.0
 14
19.49999999999996
 24
19.4999999999999
 34
0.0
 15
574.5
 25
420.5
 35
0.0
146
0.0
 13
0.0
 23
0.0
 33
0.0
 16
1.0
 26
0.0
 36
0.0
 17
0.0
 27
1.0
 37
0.0
 76
     0
330
1F
331
29
  0
MLINESTYLE
  5
18
102
{ACAD_REACTORS
330
17
102
}
330
17
100
AcDbMlineStyle
  2
Standard
 70
     0
  3

 62
   256
 51
90.0
 52
90.0
 71
     2
 49
0.5
 62
   256
  6
BYLAYER
 49
-0.5
 62
   256
  6
BYLAYER
  0
ACDBPLACEHOLDER
  5
F
102
{ACAD_REACTORS
330
E
102
}
330
E
  0
VISUALSTYLE
  5
2F
102
{ACAD_REACTORS
330
2A
102
}
330
2A
100
AcDbVisualStyle
  2
2dWireframe
 70
     4
 71
     0
 72
     2
 73
     0
 90
        0
 40
-0.6
 41
-30.0
 62
     5
 63
     7
 74
     1
 91
        4
 64
     7
 65
   257
 75
     1
175
     1
 42
1.0
 92
        0
 66
   257
 43
1.0
 76
     1
 77
     6
 78
     2
 67
     7
 79
     5
170
     0
171
     0
290
     0
174
     0
 93
        1
 44
0.0
173
     0
291
     0
 45
0.0
1001
ACAD
1000
AcDbSavedByObjectVersion
1070
     0
  0
VISUALSTYLE
  5
31
102
{ACAD_REACTORS
330
2A
102
}
330
2A
100
AcDbVisualStyle
  2
3D Hidden
 70
     6
 71
     1
 72
     2
 73
     2
 90
        0
 40
-0.6
 41
-30.0
 62
     5
 63
     7
 74
     2
 91
        2
 64
     7
 65
   257
 75
     2
175
     1
 42
40.0
 92
        0
 66
   257
 43
1.0
 76
     1
 77
     6
 78
     2
 67
     7
 79
     3
170
     0
171
     0
290
     0
174
     0
 93
        1
 44
0.0
173
     0
291
     0
 45
0.0
1001
ACAD
1000
AcDbSavedByObjectVersion
1070
     0
  0
VISUALSTYLE
  5
30
102
{ACAD_REACTORS
330
2A
102
}
330
2A
100
AcDbVisualStyle
  2
3dWireframe
 70
     5
 71
     0
 72
     2
 73
     0
 90
        0
 40
-0.6
 41
-30.0
 62
     5
 63
     7
 74
     1
 91
        4
 64
     7
 65
   257
 75
     1
175
     1
 42
1.0
 92
        0
 66
   257
 43
1.0
 76
     1
 77
     6
 78
     2
 67
     7
 79
     5
170
     0
171
     0
290
     0
174
     0
 93
        1
 44
0.0
173
     0
291
     0
 45
0.0
1001
ACAD
1000
AcDbSavedByObjectVersion
1070
     0
  0
VISUALSTYLE
  5
32
102
{ACAD_REACTORS
330
2A
102
}
330
2A
100
AcDbVisualStyle
  2
Basic
 70
     7
 71
     1
 72
     0
 73
     1
 90
        0
 40
-0.6
 41
-30.0
 62
     5
 63
     7
 74
     0
 91
        4
 64
     7
 65
   257
 75
     1
175
     1
 42
1.0
 92
        8
 66
     7
 43
1.0
 76
     1
 77
     6
 78
     2
 67
     7
 79
     5
170
     0
171
     0
290
     0
174
     0
 93
        1
 44
0.0
173
     0
291
     1
 45
0.0
1001
ACAD
1000
AcDbSavedByObjectVersion
1070
     0
  0
VISUALSTYLE
  5
36
102
{ACAD_REACTORS
330
2A
102
}
330
2A
100
AcDbVisualStyle
  2
Brighten
 70
    12
 71
     2
 72
     2
 73
     0
 90
        0
 40
-0.6
 41
-30.0
 62
     5
 63
     7
 74
     1
 91
        4
 64
     7
 65
   257
 75
     1
175
     1
 42
1.0
 92
        8
 66
     7
 43
1.0
 76
     1
 77
     6
 78
     2
 67
     7
 79
     5
170
     0
171
     0
290
     0
174
     0
 93
        1
 44
50.0
173
     0
291
     1
 45
0.0
1001
ACAD
1000
AcDbSavedByObjectVersion
1070
     0
  0
VISUALSTYLE
  5
3A
102
{ACAD_REACTORS
330
2A
102
}
330
2A
100
AcDbVisualStyle
  2
ColorChange
 70
    16
 71
     2
 72
     2
 73
     3
 90
        0
 40
-0.6
 41
-30.0
 62
     5
 63
     8
 74
     1
 91
        4
 64
     7
 65
   257
 75
     1
175
     1
 42
1.0
 92
        8
 66
     8
 43
1.0
 76
     1
 77
     6
 78
     2
 67
     7
 79
     5
170
     0
171
     0
290
     0
174
     0
 93
        1
 44
0.0
173
     0
291
     1
 45
0.0
1001
ACAD
1000
AcDbSavedByObjectVersion
1070
     0
  0
VISUALSTYLE
  5
34
102
{ACAD_REACTORS
330
2A
102
}
330
2A
100
AcDbVisualStyle
  2
Conceptual
 70
     9
 71
     3
 72
     2
 73
     0
 90
        0
 40
-0.6
 41
-30.0
 62
     5
 63
     7
 74
     2
 91
        2
 64
     7
 65
   257
 75
     1
175
     1
 42
40.0
 92
        8
 66
     7
 43
1.0
 76
     1
 77
     6
 78
     2
 67
     7
 79
     3
170
     0
171
     0
290
     0
174
     0
 93
        1
 44
0.0
173
     0
291
     0
 45
0.0
1001
ACAD
1000
AcDbSavedByObjectVersion
1070
     0
  0
VISUALSTYLE
  5
35
102
{ACAD_REACTORS
330
2A
102
}
330
2A
100
AcDbVisualStyle
  2
Dim
 70
    11
 71
     2
 72
     2
 73
     0
 90
        0
 40
-0.6
 41
-30.0
 62
     5
 63
     7
 74
     1
 91
        4
 64
     7
 65
   257
 75
     1
175
     1
 42
1.0
 92
        8
 66
     7
 43
1.0
 76
     1
 77
     6
 78
     2
 67
     7
 79
     5
170
     0
171
     0
290
     0
174
     0
 93
        1
 44
-50.0
173
     0
291
     1
 45
0.0
1001
ACAD
1000
AcDbSavedByObjectVersion
1070
     0
  0
VISUALSTYLE
  5
39
102
{ACAD_REACTORS
330
2A
102
}
330
2A
100
AcDbVisualStyle
  2
Facepattern
 70
    15
 71
     2
 72
     2
 73
     0
 90
        0
 40
-0.6
 41
-30.0
 62
     5
 63
     7
 74
     1
 91
        4
 64
     7
 65
   257
 75
     1
175
     1
 42
1.0
 92
        8
 66
     7
 43
1.0
 76
     1
 77
     6
 78
     2
 67
     7
 79
     5
170
     0
171
     0
290
     0
174
     0
 93
        1
 44
0.0
173
     0
291
     1
 45
0.0
1001
ACAD
1000
AcDbSavedByObjectVersion
1070
     0
  0
VISUALSTYLE
  5
2B
102
{ACAD_REACTORS
330
2A
102
}
330
2A
100
AcDbVisualStyle
  2
Flat
 70
     0
 71
     2
 72
     1
 73
     1
 90
        2
 40
-0.6
 41
30.0
 62
     5
 63
     7
 74
     0
 91
        4
 64
     7
 65
   257
 75
     1
175
     1
 42
1.0
 92
        8
 66
     7
 43
1.0
 76
     1
 77
     6
 78
     2
 67
     7
 79
     5
170
     0
171
     0
290
     0
174
     0
 93
       13
 44
0.0
173
     0
291
     1
 45
0.0
1001
ACAD
1000
AcDbSavedByObjectVersion
1070
     0
  0
VISUALSTYLE
  5
2C
102
{ACAD_REACTORS
330
2A
102
}
330
2A
100
AcDbVisualStyle
  2
FlatWithEdges
 70
     1
 71
     2
 72
     1
 73
     1
 90
        2
 40
-0.6
 41
30.0
 62
     5
 63
     7
 74
     1
 91
        4
 64
     7
 65
   257
 75
     1
175
     1
 42
1.0
 92
        0
 66
   257
 43
1.0
 76
     1
 77
     6
 78
     2
 67
     7
 79
     5
170
     0
171
     0
290
     0
174
     0
 93
       13
 44
0.0
173
     0
291
     1
 45
0.0
1001
ACAD
1000
AcDbSavedByObjectVersion
1070
     0
  0
VISUALSTYLE
  5
2D
102
{ACAD_REACTORS
330
2A
102
}
330
2A
100
AcDbVisualStyle
  2
Gouraud
 70
     2
 71
     2
 72
     2
 73
     1
 90
        2
 40
-0.6
 41
30.0
 62
     5
 63
     7
 74
     0
 91
        4
 64
     7
 65
   257
 75
     1
175
     1
 42
1.0
 92
        0
 66
     7
 43
1.0
 76
     1
 77
     6
 78
     2
 67
     7
 79
     5
170
     0
171
     0
290
     0
174
     0
 93
       13
 44
0.0
173
     0
291
     1
 45
0.0
1001
ACAD
1000
AcDbSavedByObjectVersion
1070
     0
  0
VISUALSTYLE
  5
2E
102
{ACAD_REACTORS
330
2A
102
}
330
2A
100
AcDbVisualStyle
  2
GouraudWithEdges
 70
     3
 71
     2
 72
     2
 73
     1
 90
        2
 40
-0.6
 41
30.0
 62
     5
 63
     7
 74
     1
 91
        4
 64
     7
 65
   257
 75
     1
175
     1
 42
1.0
 92
        0
 66
   257
 43
1.0
 76
     1
 77
     6
 78
     2
 67
     7
 79
     5
170
     0
171
     0
290
     0
174
     0
 93
       13
 44
0.0
173
     0
291
     1
 45
0.0
1001
ACAD
1000
AcDbSavedByObjectVersion
1070
     0
  0
VISUALSTYLE
  5
38
102
{ACAD_REACTORS
330
2A
102
}
330
2A
100
AcDbVisualStyle
  2
Linepattern
 70
    14
 71
     2
 72
     2
 73
     0
 90
        0
 40
-0.6
 41
-30.0
 62
     5
 63
     7
 74
     1
 91
        4
 64
     7
 65
   257
 75
     7
175
     7
 42
1.0
 92
        8
 66
     7
 43
1.0
 76
     1
 77
     6
 78
     2
 67
     7
 79
     5
170
     0
171
     0
290
     0
174
     0
 93
        1
 44
0.0
173
     0
291
     1
 45
0.0
1001
ACAD
1000
AcDbSavedByObjectVersion
1070
     0
  0
VISUALSTYLE
  5
33
102
{ACAD_REACTORS
330
2A
102
}
330
2A
100
AcDbVisualStyle
  2
Realistic
 70
     8
 71
     2
 72
     2
 73
     0
 90
        0
 40
-0.6
 41
-30.0
 62
     5
 63
     7
 74
     1
 91
        0
 64
     7
 65
   257
 75
     1
175
     1
 42
1.0
 92
        8
 66
     8
 43
1.0
 76
     1
 77
     6
 78
     2
 67
     7
 79
     5
170
     0
171
     0
290
     0
174
     0
 93
       13
 44
0.0
173
     0
291
     0
 45
0.0
1001
ACAD
1000
AcDbSavedByObjectVersion
1070
     0
  0
VISUALSTYLE
  5
37
102
{ACAD_REACTORS
330
2A
102
}
330
2A
100
AcDbVisualStyle
  2
Thicken
 70
    13
 71
     2
 72
     2
 73
     0
 90
        0
 40
-0.6
 41
-30.0
 62
     5
 63
     7
 74
     1
 91
        4
 64
     7
 65
   257
 75
     1
175
     1
 42
1.0
 92
       12
 66
     7
 43
1.0
 76
     1
 77
     6
 78
     2
 67
     7
 79
     5
170
     0
171
     0
290
     0
174
     0
 93
        1
 44
0.0
173
     0
291
     1
 45
0.0
1001
ACAD
1000
AcDbSavedByObjectVersion
1070
     0
  0
ENDSEC
  0
EOF
